Loading...
Error

Скачать Обман / Обманутая / Deceived (Дэмиэн Харрис / Damian Harris) [1991, триллер, WEB-DLRip] [Dub]+ [AVO] (Гаврилов) + Original (eng) + Sub (rus, eng) торрент без регистрации

 
Статистика раздачи
Размер:  1,61 GB   |    Скачан:  116 раз

Полного источника не было: 20 минут

 
Автор Сообщение

leon030982

[] 

Обман / Обманутая / Deceived


Год выхода: 1991
Жанр: триллер
Страна: США / Silver Screen Partners IV, Touchstone Pictures
Продолжительность: 01:48:15
Перевод #1: Профессиональный (полное дублирование) R5
Перевод #2: Авторский (одноголосый, закадровый) Андрей Гаврилов
Оригинальная аудиодорожка: английская
Субтитры: русские (полные), английские (полные) |*srt|

Режиссер: Дэмиэн Харрис / Damian Harris

В ролях: Голди Хоун, Джон Хёрд, Дэймон Редферн, Чарльз Кассатли, Робин Бартлетт, Эшли Пелдон, Беатрис Стрэйт, Джордж Р. Робертсон, Майя Файлар, Том Ирвин, Ян Рубес, Анаис Гранофски, Хайди фон Паллеске, Стенли Андерсон, Питер Стивенс, Ив Кроуфорд, Ио Перри, Стивен Хантер, Нэнси Ксер, Франческа Буллер
Описание: Очаровательная Адриан Сандерс все шесть лет своего брака думала, что ей невероятно повезло с мужем. Но шестилетняя семейная идиллия внезапно обрывается настоящим кошмаром. После ряда странных происшествий гибнет в автокатастрофе супруг героини. А потом она выясняет, что человек по имени Джек Сандерс умер еще 16 лет назад... Перед напуганной Адриан начинают проступать такие угрюмые тайны из прошлого Джека, которые способны погубить ее настоящее. Не в силах перестать задавать опасные вопросы, она открывает тем самым шкатулку Пандоры...





Качество: WEB-DLRip [WEB-DL 720p / HDCLUB]
Формат: AVI
Видео: 688x368 (1.87:1), 23.976 fps, XviD build 73 ~1533 kbps avg, 0.25 bit/pixel
Aудио 1: 48 kHz, AC3 Dolby Digital, 2/0 (L,R) ch, ~192.00 kbps avg |DUB, R5|
Aудио 2: 48 kHz, AC3 Dolby Digital, 2/0 (L,R) ch, ~192.00 kbps avg |ENG|
Aудио 3: 48 kHz, AC3 Dolby Digital, 2/0 (L,R) ch, ~192.00 kbps avg |Гаврилов| <= отдельно

Код:

Формат                                   : AVI
Формат/Информация                        : Audio Video Interleave
Размер файла                             : 1,46 Гбайт
Продолжительность                        : 1 ч. 48 м.
Общий поток                              : 1932 Кбит/сек
Программа кодирования                    : VirtualDubMod 1.5.10.3 | www.virtualdub-fr.org || (build 2550/release)
Библиотека кодирования                   : VirtualDubMod build 2550/release
Видео
Идентификатор                            : 0
Формат                                   : MPEG-4 Visual
Профиль формата                          : Advanced Simple@L5
Параметр BVOP формата                    : 1
Параметр QPel формата                    : Нет
Параметр GMC формата                     : Без точки перехода
Параметр матрицы формата                 : Выборочная
Идентификатор кодека                     : XVID
Идентификатор кодека/Подсказка           : XviD
Продолжительность                        : 1 ч. 48 м.
Битрейт                                  : 1534 Кбит/сек
Ширина                                   : 688 пикселей
Высота                                   : 368 пикселей
Соотношение сторон                       : 1,85:1
Частота кадров                           : 23,976 кадра/сек
Цветовое пространство                    : YUV
Субдискретизация насыщенности            : 4:2:0
Битовая глубина                          : 8 бит
Тип развёртки                            : Прогрессивная
Метод сжатия                             : С потерями
Бит/(Пиксели*Кадры)                      : 0.253
Размер потока                            : 1,16 Гбайт (79%)
Библиотека кодирования                   : XviD 73
Аудио #1
Идентификатор                            : 1
Формат                                   : AC-3
Формат/Информация                        : Audio Coding 3
Расширение режима                        : CM (complete main)
Параметр Endianness формата              : Big
Идентификатор кодека                     : 2000
Продолжительность                        : 1 ч. 48 м.
Вид битрейта                             : Постоянный
Битрейт                                  : 192 Кбит/сек
Каналы                                   : 2 канала
Расположение каналов                     : Front: L R
Частота                                  : 48,0 КГц
Битовая глубина                          : 16 бит
Метод сжатия                             : С потерями
Размер потока                            : 149 Мбайт (10%)
Выравнивание                             : Разделение по промежуткам
Продолжительность промежутка             : 42  мс. (1,00 видеокадр)
Время предзагрузки промежутка            : 500  мс.
Аудио #2
Идентификатор                            : 2
Формат                                   : AC-3
Формат/Информация                        : Audio Coding 3
Расширение режима                        : CM (complete main)
Параметр Endianness формата              : Big
Идентификатор кодека                     : 2000
Продолжительность                        : 1 ч. 48 м.
Вид битрейта                             : Постоянный
Битрейт                                  : 192 Кбит/сек
Каналы                                   : 2 канала
Расположение каналов                     : Front: L R
Частота                                  : 48,0 КГц
Битовая глубина                          : 16 бит
Метод сжатия                             : С потерями
Размер потока                            : 149 Мбайт (10%)
Выравнивание                             : Разделение по промежуткам
Продолжительность промежутка             : 42  мс. (1,00 видеокадр)
Время предзагрузки промежутка            : 500  мс.



Скачать Обман.Обманутая.Deceived.(Дэмиэн.Харрис.Damian.Harris).[1991.триллер.WEB-DLRip].[Dub]+.[AVO].(Гаврилов).+.Original.(eng).+.Sub.(rus.eng).torrent без регистрации
Золото ЗОЛОТАЯ РАЗДАЧА! СКАЧАННОЕ НЕ ЗАСЧИТЫВАЕТСЯ! Золото
Дата: Зарегистрирован   [ Тип: внутренний ] Как тут cкачать?
MAGNET ссылка
MAGNET ссылка


Скачать .torrent

17 KB

Статус: проверено DHT
Скачан: торрент - 116 раз, раздача полностью - 17 раз
Размер: 1,61 GB
Оценка:  5 (Голосов: 1)
Поблагодарили: 1
Поделиться ссылкой на эту раздачу с друзьями:
В контактеFacebookОдноклассникиTwitterLivejournalМой МирLiveinternet
 

 
Показать сообщения:    


Вы не можете начинать темы
Вы не можете отвечать на сообщения
Вы не можете редактировать свои сообщения
Вы не можете удалять свои сообщения
Вы не можете голосовать в опросах
Вы не можете прикреплять файлы к сообщениям
Вы можете скачивать файлы