Loading...
Error

Скачать Мыс страха / Cape Fear (Мартин Скорсезе / Martin Scorsese) [1991, триллер, драма, криминал, BDRip-AVC] [AVO] (Ю. Сербин) торрент без регистрации

 
Статистика раздачи
Размер:  2,17 GB   |    Скачан:  132 раза

Полного источника не было: 23 минуты

 
Автор Сообщение

leon030982

[] 

Мыс страха
Cape Fear



Год выпуска: 1991
Страна: США
Жанр: триллер, драма, криминал.
Продолжительность: 02:07:26
Перевод: Авторский (одноголосый, закадровый) [Ю. Сербин]
Cубтитры: нет
Режиссер: Мартин Скорсезе / Martin Scorsese
В ролях: Роберт Де Ниро, Ник Нолти, Джессика Лэнг, Джульетт Льюис, Грегори Пек, Роберт Митчум, Джо Дон Бейкер, Мартин Болсам, Илляна Даглас, Фред Долтон Томпсон, Грегори Пек.
Описание: Матерый уголовник Макс Кейди выходит из тюрьмы, отсидев длительный срок за изнасилование. Его сердце переполнено злобой и ненавистью. Тогда, четырнадцать лет назад, его адвокатом на суде был Сэм Боуден. У него в руках была важная информация, которая, возможно, могла оправдать Макса.

Качество: BDRip-AVC
Исходник: Blu-ray Disc / 1080p
Формат видео: MKV
Видео кодек: h.264
Аудио кодек: AC3
Видео: 720x304 (2.35:1), 23.976 fps, ~1 994 kbps avg, 0.38 bit/pixel
Аудио: 48 kHz, AC3 Dolby Digital, 3/2 (L,C,R,l,r) + LFE ch, ~448.00 kbps avg
• Фильм хотел снимать Стивен Спилберг.
• Скорсезе не очень хотелось снимать Мыс страха, поскольку ему не нравились слишком приторные и правильные отношения в семье адвоката. Но Де Ниро хотел сыграть Кэйди и убедил режиссера взяться за фильм.
• В ремейке Скорсезе в эпизодах появились Роберт Митчем и Грегори Пек. В оригинальной ленте Митчем играл Кэйди, а Пек – Сэма Боудена.
• Полной аллюзии на старый фильм могло бы не случиться, так как вместо Митчема должен был играть Джордж С. Скотт. Тот выбыл из фильма через несколько дней после начала съемок по состоянию здоровья.
• В фильме также в роли судьи появляется Мартин Болсам, у которого в старом фильме была одна из ролей второго плана.
• Это последнее появление Грегори Пека в большом кино. Дальше были еще две работы на телевидении.
• Роберт Де Ниро заплатил дантисту $5 тысяч, чтобы тот придал его зубам нужный вид для роли отмотавшего 14-летний срок зека. И ему пришлось заплатить еще $20 тысяч, чтобы после съемок привести свои зубы в норму.
• Музыку к фильму написал композитор Элмер Бернстайн, однако в некоторых эпизодах Скорсезе использовал партитуру Бернарда Херрманна из старого Мыса страха. Также новый сценарий Уэсли Стрика базируется на оригинальном сценарии Джеймса Р. Уэбба. Между прочим, Скорсезе впервые в своей карьере допустил на съемки сценариста.
• Татуировки Макса Кэйди были выполнены специальными красками, которые вылиняли через несколько месяцев.
• Де Ниро прочел исследования о сексуальных преступлениях и сам предложил сцену, в которой Кэйди кусает свою жертву.
• Де Ниро провел несколько месяцев в спортивном зале, чтобы набрать необходимую для роли мышечную массу. Напротив, физически развитому Нику Нолте пришлось сидеть на строжайшей диете, чтобы он не выглядел в кадре сильнее, чем Де Ниро.
• Сцена в школе между Кэйди и Даниэль была полностью сымпровизирована Де Ниро и Джульетт Льюис. Кстати, в сценарии это была сцена погони, но Скорсезе хотел сделать ее как сцену совращения.
• На роль Сэма Боудена Скорсезе хотел заполучить Харрисона Форда. Он даже просил Де Ниро позвонить Форду и убедить его сыграть в фильме.
• Роберт Редфорд также мог сыграть адвоката Боудена.
• На пробах на роль Даниэль Боуден присутствовала тогда еще неизвестная Риз Уизерспун.
• На роль Даниэль рассматривались Дрю Бэрримор, Сара Джессика Паркер, Николь Эггерт. Также роль предлагалась Дженнифер Коннелли, Алисе Милано, Вайноне Райдер, Тиффани Тиссен и Кристине Эпплгейт, но они отказались.
General
Unique ID : 197289413170581614859606384571422504754 (0x946C8F11073D10E68E0F653866367732)
Complete name : F:\Cape Fear(1991).mkv
Format : Matroska
Format version : Version 4 / Version 2
File size : 2.17 GiB
Duration : 2h 7mn
Overall bit rate : 2 444 Kbps
Encoded date : UTC 2010-02-22 21:41:31
Writing application : mkvmerge v5.9.0 ('On The Loose') built on Dec 9 2012 15:37:01
Writing library : libebml v1.3.0 + libmatroska v1.4.0
Video
ID : 1
Format : AVC
Format/Info : Advanced Video Codec
Format profile : High@L4.1
Format settings, CABAC : Yes
Format settings, ReFrames : 4 frames
Codec ID : V_MPEG4/ISO/AVC
Duration : 2h 7mn
Bit rate : 1 994 Kbps
Width : 720 pixels
Height : 304 pixels
Display aspect ratio : 2.35:1
Frame rate mode : Constant
Frame rate : 23.976 fps
Color space : YUV
Chroma subsampling : 4:2:0
Bit depth : 8 bits
Scan type : Progressive
Bits/(Pixel*Frame) : 0.380
Stream size : 1.73 GiB (80%)
Writing library : x264 core 125 r2200 999b753
Encoding settings : cabac=1 / ref=3 / deblock=1:-1:-1 / analyse=0x3:0x133 / me=umh / subme=7 / psy=1 / psy_rd=1.00:0.15 / mixed_ref=1 / me_range=16 / chroma_me=1 / trellis=2 / 8x8dct=1 / cqm=0 / deadzone=21,11 / fast_pskip=0 / chroma_qp_offset=-3 / threads=6 / lookahead_threads=1 / sliced_threads=0 / nr=0 / decimate=1 / interlaced=0 / bluray_compat=0 / constrained_intra=0 / bframes=3 / b_pyramid=2 / b_adapt=2 / b_bias=0 / direct=3 / weightb=1 / open_gop=0 / weightp=2 / keyint=250 / keyint_min=23 / scenecut=40 / intra_refresh=0 / rc_lookahead=50 / rc=2pass / mbtree=1 / bitrate=1994 / ratetol=1.0 / qcomp=0.60 / qpmin=0 / qpmax=69 / qpstep=4 / cplxblur=20.0 / qblur=0.5 / ip_ratio=1.40 / aq=1:1.00
Default : Yes
Forced : No
Audio
ID : 2
Format : AC-3
Format/Info : Audio Coding 3
Mode extension : CM (complete main)
Format settings, Endianness : Big
Codec ID : A_AC3
Duration : 2h 7mn
Bit rate mode : Constant
Bit rate : 448 Kbps
Channel(s) : 6 channels
Channel positions : Front: L C R, Side: L R, LFE
Sampling rate : 48.0 KHz
Bit depth : 16 bits
Compression mode : Lossy
Stream size : 408 MiB (18%)
Title : Serbin
Language : Russian
Default : Yes
Forced : No



Скачать Мыс.страха.Cape.Fear.(Мартин.Скорсезе.Martin.Scorsese).[1991.триллер.драма.криминал.BDRip-AVC].[AVO].(Ю.Сербин).torrent без регистрации
Золото ЗОЛОТАЯ РАЗДАЧА! СКАЧАННОЕ НЕ ЗАСЧИТЫВАЕТСЯ! Золото
Дата: Зарегистрирован   [ Тип: внутренний ] Как тут cкачать?
MAGNET ссылка
MAGNET ссылка


Скачать .torrent

11 KB

Статус: проверено DHT
Скачан: торрент - 132 раз, раздача полностью - 5 раз
Размер: 2,17 GB
Оценка:  - (Голосов: 0)
Поблагодарили: 1
Поделиться ссылкой на эту раздачу с друзьями:
В контактеFacebookОдноклассникиTwitterLivejournalМой МирLiveinternet
 

 
Показать сообщения:    


Вы не можете начинать темы
Вы не можете отвечать на сообщения
Вы не можете редактировать свои сообщения
Вы не можете удалять свои сообщения
Вы не можете голосовать в опросах
Вы не можете прикреплять файлы к сообщениям
Вы можете скачивать файлы