Loading...
Error

Скачать Тюдоры / The Tudors (Полный 1-ый сезон) (Чарльз МакДугалл, Стив Шилл) [2007, драма, мелодрама, военный, история, BDRip] [Dub] (SET Russia) торрент без регистрации

 
Статистика раздачи
Размер:  6,84 GB   |    Скачан:  8582 раза
Сидов:  1  [  0 KB/s  ]  
 
Автор Сообщение

leon030982

[] 

Тюдоры / The Tudors


Слоган «Sex. Intrigue. Excess. Treachery. Power. Obsession. Murder»

Год выхода: 2007
Страна: Ирландия, США, Канада
Жанр: драма, мелодрама, военный, история
Продолжительность: 10x ~ 00:55:00
Перевод: Профессиональный (полное дублирование)[SET Russia]

Режиссер: Чарльз МакДугалл, Стив Шилл
В ролях:
Джонатан Риз Майерс, Сэм Нил, Келлам Блю, Генри Кевилл, Мария Дойл Кеннеди, Натали Дормер

Описание:
Сериал рассказывает о жизни и правлении короля Англии Генриха VIII, интригах при дворе и романах молодого короля. Шоу снималось в Ирландии. Создатель — Майкл Хёрст — обладатель Оскара за фильм «Элизабет»


Качество: BDRip
Формат: AVI
Видео кодек: DivX
Аудио кодек: MP3
Видео: 720x400 (1.80:1), 23.976 fps, DivX Codec 5.x or 6.x ~1492 kbps avg, 0.22 bit/pixel
Аудио Rus: 48 kHz, MPEG Layer 3, 2 ch, ~128.00 kbps avg
Аудио Eng: 48 kHz, MPEG Layer 3, 2 ch, ~128.00 kbps avg
Релиз:

Рип подготовлен:
Taliy
In Cold Blood
Simply Henry
Wolsey, Wolsey, Wolsey!
His Majesty, the King
Arise, My Lord
True Love
Message to the Emperor
Truth and Justice
Look to God First
The Death of Wolsey
General
Complete name : E:\INTERNET\The Tudors Season 1 Set Russia(DUB)\The.Tudors.s01e01.In Cold Blood.rus.eng.bdrip.filmgate_tv.avi
Format : AVI
Format/Info : Audio Video Interleave
File size : 703 MiB
Duration : 55mn 43s
Overall bit rate : 1 763 Kbps
Writing application : VirtualDubModRus 1.5.10.2 (build 2542/release)
Writing library : VirtualDubMod build 2542/release

Video
ID : 0
Format : MPEG-4 Visual
Format settings, BVOP : 1
Format settings, QPel : No
Format settings, GMC : No warppoints
Format settings, Matrix : Default (H.263)
Muxing mode : Packed bitstream
Codec ID : DX50
Codec ID/Hint : DivX 5
Duration : 55mn 43s
Bit rate : 1 493 Kbps
Width : 720 pixels
Height : 400 pixels
Display aspect ratio : 16:9
Frame rate : 23.976 fps
Color space : YUV
Chroma subsampling : 4:2:0
Bit depth : 8 bits
Scan type : Progressive
Compression mode : Lossy
Bits/(Pixel*Frame) : 0.216
Stream size : 595 MiB (85%)
Writing library : DivX 6.8.3-6.8.4 (UTC 2008-06-07)

Audio #1
ID : 1
Format : MPEG Audio
Format version : Version 1
Format profile : Layer 3
Mode : Joint stereo
Mode extension : MS Stereo
Codec ID : 55
Codec ID/Hint : MP3
Duration : 55mn 43s
Bit rate mode : Constant
Bit rate : 128 Kbps
Channel(s) : 2 channels
Sampling rate : 48.0 KHz
Compression mode : Lossy
Stream size : 51.0 MiB (7%)
Alignment : Aligned on interleaves
Interleave, duration : 42 ms (1.00 video frame)
Interleave, preload duration : 504 ms

Audio #2
ID : 2
Format : MPEG Audio
Format version : Version 1
Format profile : Layer 3
Mode : Joint stereo
Codec ID : 55
Codec ID/Hint : MP3
Duration : 55mn 43s
Bit rate mode : Constant
Bit rate : 128 Kbps
Channel(s) : 2 channels
Sampling rate : 48.0 KHz
Compression mode : Lossy
Stream size : 51.0 MiB (7%)
Alignment : Aligned on interleaves
Interleave, duration : 42 ms (1.00 video frame)
Interleave, preload duration : 504 ms



Скачать Тюдоры.The.Tudors.(Полный.1-ый.сезон).(Чарльз.МакДугалл.Стив.Шилл).[2007.драма.мелодрама.военный.история.BDRip].[Dub].(SET.Russia).torrent без регистрации
Золото ЗОЛОТАЯ РАЗДАЧА! СКАЧАННОЕ НЕ ЗАСЧИТЫВАЕТСЯ! Золото
Дата: Зарегистрирован   [ Тип: внутренний ] Как тут cкачать?
MAGNET ссылка
MAGNET ссылка


Скачать .torrent

36 KB

Статус: проверено DHT
Скачан: торрент - 8582 раз, раздача полностью - 175 раз
Размер: 6,84 GB
Оценка:  5 (Голосов: 3)
Поблагодарили: 6
Поделиться ссылкой на эту раздачу с друзьями:
В контактеFacebookОдноклассникиTwitterLivejournalМой МирLiveinternet
 

 
Показать сообщения:    


Вы не можете начинать темы
Вы не можете отвечать на сообщения
Вы не можете редактировать свои сообщения
Вы не можете удалять свои сообщения
Вы не можете голосовать в опросах
Вы не можете прикреплять файлы к сообщениям
Вы можете скачивать файлы