Loading...
Error

Скачать Царевич Алексей (Виталий Мельников) [1996, драма, история, DVDRip-AVC] торрент без регистрации

 
Статистика раздачи
Размер:  1,45 GB   |    Скачан:  125 раз
Сидов:  2  [  0 KB/s  ]  
 
Автор Сообщение

МихаНЕзатор

[] 

Страна: Россия
Производство: Ленфильм

Жанр: драма, история
Год выпуска: 1996
Продолжительность: 01:44:01 (00:52:00 + 00:52:01)

Перевод: не требуется
Оригинальная аудиодорожка: русский
Cубтитры: нет

Режиссер: Виталий Мельников

В ролях:
Алексей Зуев, Виктор Степанов, Екатерина Кулакова, Наталья Егорова, Роман Громадский, Станислав Любшин, Владимир Меньшов, Фёдор Стуков, Анатолий Петров, Михаил Кононов...

Описание:
Алексей Петрович показан человеком, который стыдится своего венценосного отца и лишь хочет жить обычной жизнью. При этом он, согласно создателям фильма, был тихим и богобоязненным человеком, который не желал смерти Петру I и смены власти в России. Но в результате дворцовых интриг он был оклеветан, за что был замучен своим отцом, а его товарищи были казнены…



Исходник: DVD5 R5
Тип релиза: DVDRip-AVC
Контейнер: MKV

Видео: 712->764x460 (1,661:1), 25 fps, H264 ~ 1809 kbps avg, 0.221 bit/pixel
Аудио: 48 kHz, Dolby Digital AC3 2.0, 192 kbps



Общее
Полное имя : Carevich.Aleksey.1996.DVDRip-AVC_[New-team]_by_AVP_Studio.mkv
Формат : Matroska
Версия формата : Version 2
Размер файла : 744 Мбайт
Продолжительность : 52 м.
Общий поток : 2000 Кбит/сек
Дата кодирования : UTC 2014-05-31 22:57:30
Программа кодирования : mkvmerge v6.1.0 ('Old Devil') built on Mar 4 2013 09:10:42
Библиотека кодирования : libebml v1.3.0 + libmatroska v1.4.0

Видео
Идентификатор : 1
Формат : AVC
Формат/Информация : Advanced Video Codec
Профиль формата : High@L4.1
Параметр CABAC формата : Да
Параметр ReFrames формата : 8 кадров
Идентификатор кодека : V_MPEG4/ISO/AVC
Продолжительность : 52 м.
Битрейт : 1809 Кбит/сек
Ширина : 712 пикселей
Высота : 460 пикселей
Соотношение сторон : 1,661
Соотношение сторон в оригинале : 1,660
Режим частоты кадров : Постоянный
Частота кадров : 25,000 кадров/сек
Цветовое пространство : YUV
Субдискретизация насыщенности : 4:2:0
Битовая глубина : 8 бит
Тип развёртки : Прогрессивная
Бит/(Пиксели*Кадры) : 0.221
Размер потока : 658 Мбайт (88%)
Библиотека кодирования : x264 core 138 r2356 a1d3d17
Настройки программы : cabac=1 / ref=8 / deblock=1:-2:-1 / analyse=0x3:0x113 / me=umh / subme=10 / psy=1 / psy_rd=1.00:0.05 / mixed_ref=1 / me_range=32 / chroma_me=1 / trellis=2 / 8x8dct=1 / cqm=0 / deadzone=21,11 / fast_pskip=0 / chroma_qp_offset=-3 / threads=6 / lookahead_threads=1 / sliced_threads=0 / nr=0 / decimate=0 / interlaced=0 / bluray_compat=0 / constrained_intra=0 / bframes=8 / b_pyramid=2 / b_adapt=2 / b_bias=0 / direct=3 / weightb=1 / open_gop=0 / weightp=2 / keyint=250 / keyint_min=25 / scenecut=40 / intra_refresh=0 / rc=2pass / mbtree=0 / bitrate=1809 / ratetol=1.0 / qcomp=0.60 / qpmin=0 / qpmax=69 / qpstep=4 / cplxblur=20.0 / qblur=0.5 / ip_ratio=1.40 / pb_ratio=1.30 / aq=1:1.00
Default : Да
Forced : Нет

Аудио
Идентификатор : 2
Формат : AC-3
Формат/Информация : Audio Coding 3
Расширение режима : CM (complete main)
Параметр Endianness формата : Big
Идентификатор кодека : A_AC3
Продолжительность : 52 м.
Вид битрейта : Постоянный
Битрейт : 192 Кбит/сек
Каналы : 2 канала
Расположение каналов : Front: L R
Частота : 48,0 КГц
Битовая глубина : 16 бит
Метод сжатия : С потерями
Размер потока : 71,4 Мбайт (10%)
Default : Да
Forced : Нет

1997 — Кинофестиваль «Виват кино России!» в Санкт-Петербурге (Приз прессы и Приз за лучшую режиссуру — Виталий Мельников.
1997 — Кинофестиваль «Окно в Европу» в Выборге (Диплом за лучшую актёрскую работу — Алексей Зуев, Главный приз за лучший фильм, Приз «Поддержка в прокате» — Виталий Мельников)
1997 — Кинофестиваль русских фильмов в Онфлере (Гран-при — Виталий Мельников)
1998 — Кинофестиваль «Литература и кино» в Гатчине (Спец. приз жюри — Виталий Мельников)
1999 — Премия деловых кругов «Кумир» (В номинации «Надежда года» — Алексей Зуев)
1998 — 3 премии «Ника»: Лучшая работа художника по костюмам, Лучший звук, Лучшая работа художника-постановщика; номинация: Лучшая мужская роль (Алексей Зуев)



Скачать Царевич.Алексей.(Виталий.Мельников).[1996.драма.история.DVDRip-AVC].torrent без регистрации
Золото ЗОЛОТАЯ РАЗДАЧА! СКАЧАННОЕ НЕ ЗАСЧИТЫВАЕТСЯ! Золото
Дата: Зарегистрирован   [ Тип: внешний ] Как тут cкачать?
MAGNET ссылка
MAGNET ссылка


Скачать .torrent

15 KB

Статус: проверено DHT
Скачан: торрент - 125 раз, раздача полностью - 7 раз
Размер: 1,45 GB
Оценка:  - (Голосов: 0)
Поблагодарили: 1
Поделиться ссылкой на эту раздачу с друзьями:
В контактеFacebookОдноклассникиTwitterLivejournalМой МирLiveinternet
 

 
Показать сообщения:    


Вы не можете начинать темы
Вы не можете отвечать на сообщения
Вы не можете редактировать свои сообщения
Вы не можете удалять свои сообщения
Вы не можете голосовать в опросах
Вы не можете прикреплять файлы к сообщениям
Вы можете скачивать файлы