Loading...
Error

Скачать Череп и кости / Crossbones (01x01 из 10) (Дэниэл Эттиэс, Киаран Доннелли, Деран Сарафян) [2014, приключения, драма, WEB-DL] [720p] [MVO] (AlexFilm) торрент без регистрации

 
Статистика раздачи
Размер:  1,7 GB   |    Скачан:  122 раза
Сидов:  1  [  0 KB/s  ]  
 
Автор Сообщение

leon030982

[] 


Череп и кости / Crossbones

1 сезон, 1 серия

Год выпуска: 2014
Страна: США
Жанр: драма, приключения
Продолжительность: 1 х ~50 мин
Озвучание: профессиональное многоголосое закадровое (AlexFilm)
Субтитры: нет
Режиссёры: Дэвид Слэйд, Киаран Доннелли, Дэниэл Эттиэс, Терри Макдонаф, Деран Сарафян, Стив Шилл
В ролях: Джон Малкович, Ричард Койл, Клер Фой, Ясмин Эл Массри, Дэвид Хофлин, Крис Перфетти, Трэйси Айфичор, Питер Стеббингс, Джулиан Сэндс, Эзра Баззингтон, Генри Херфорд, Эмильен Де Фалько, Кевин Райан...
Описание: 1715 год. Багамский островов Нью-Провиденс. Здесь появилась первая функционирующая демократия в Америке. Дьявольский пират Эдвард Тич, он же Черная Борода, господствует здесь над нацией воров, преступников и злодеев моряков. Чтобы получить контроль над этим устрашающим обществом, опытного убийцу Тома Лоу посылают убить Черную Бороду.
Релиз:
Перевод: Константин Кривоногов
Монтаж и сведение звука: Михаил Шорыгин
Роли озвучивали:Евгения Тихонова
Александр Воронов
Михаил Суслов
Владимир Курдов
Сергей Пономарёв

Качество: WEB-DL 720p
Формат: MKV
Видео кодек: H.264
Аудио кодек: AC3
Видео: 1280x720 (16:9), 23.976 fps, MPEG-4 AVC ~4000 kbps avg, 0.18 bit/pixel
Аудио Rus: 48 kHz, AC3 Dolby Digital, 3/2 (L,C,R,l,r) + LFE ch, ~384.00 kbps avg
Аудио Eng: 48 kHz, AC3 Dolby Digital, 3/2 (L,C,R,l,r) + LFE ch, ~384.00 kbps avg
Format : Matroska
Format version : Version 4 / Version 2
File size : 1.70 GiB
Duration : 50mn 17s
Overall bit rate : 4 833 Kbps
Movie name : Crossbones 1x01 The Devil's Dominion @ AlexFilm
Encoded date : UTC 2014-06-02 23:28:27
Writing application : mkvmerge v6.6.0 ('The Edge Of The In Between') built on Dec 1 2013 17:55:00
Writing library : libebml v1.3.0 + libmatroska v1.4.1
Video
ID : 1
Format : AVC
Format/Info : Advanced Video Codec
Format profile : High@L3.1
Format settings, CABAC : No
Format settings, ReFrames : 2 frames
Codec ID : V_MPEG4/ISO/AVC
Duration : 50mn 17s
Bit rate : 3 968 Kbps
Width : 1 280 pixels
Height : 720 pixels
Display aspect ratio : 16:9
Frame rate mode : Constant
Frame rate : 23.976 fps
Color space : YUV
Chroma subsampling : 4:2:0
Bit depth : 8 bits
Scan type : Progressive
Bits/(Pixel*Frame) : 0.180
Stream size : 1.39 GiB (82%)
Language : English
Default : Yes
Forced : No
Color primaries : BT.709
Transfer characteristics : BT.709
Matrix coefficients : BT.709
Audio #1
ID : 2
Format : AC-3
Format/Info : Audio Coding 3
Mode extension : CM (complete main)
Format settings, Endianness : Big
Codec ID : A_AC3
Duration : 50mn 17s
Bit rate mode : Constant
Bit rate : 384 Kbps
Channel(s) : 6 channels
Channel positions : Front: L C R, Side: L R, LFE
Sampling rate : 48.0 KHz
Bit depth : 16 bits
Compression mode : Lossy
Stream size : 138 MiB (8%)
Title : DD5.1 AlexFilm
Language : Russian
Default : Yes
Forced : No
Audio #2
ID : 3
Format : AC-3
Format/Info : Audio Coding 3
Mode extension : CM (complete main)
Format settings, Endianness : Big
Codec ID : A_AC3
Duration : 50mn 17s
Bit rate mode : Constant
Bit rate : 384 Kbps
Channel(s) : 6 channels
Channel positions : Front: L C R, Side: L R, LFE
Sampling rate : 48.0 KHz
Bit depth : 16 bits
Compression mode : Lossy
Stream size : 138 MiB (8%)
Title : DD5.1 Original
Language : English
Default : No
Forced : No
Внимание! Раздача ведётся путём добавления новых серий
Внимание! Раздача ведётся путём добавления новых серий; при каждом добавлении создётся новый торрент. Чтобы начать докачку новой серии, пользователям необходимо сделать следующее:
(1) остановить скачивание,
(2) удалить старый торрент у себя из клиента (старые серии удалять не надо),
(3) скачать новый торрент и запустить его у себя в клиенте вместо старого, при этом указать клиенту путь в старую папку куда и должно происходить скачивание новых серий.
Ваш клиент при этом должен произвести хеширование (проверку) старой папки (если не производит сам - помогите ему сделать это), и будет докачивать только те серии которых у вас ещё нет. Старые серии при этом не удаляются, а продолжают раздаваться!
Eсли вы уже удалили старые серии, то предотвратить повторную закачку старых серий можно, отжав галочку в соответсвующих местах при запуске нового торрента. По возможности, желательно не удалять старые серии как можно дольше, чтобы релизёр не столько продолжал раздавать старые серии, а смог сконцентрироваться на новых.



Скачать Череп.и.кости.Crossbones.(01x01.из.10).(Дэниэл.Эттиэс.Киаран.Доннелли.Деран.Сарафян).[2014.приключения.драма.WEB-DL].[720p].[MVO].(AlexFilm).torrent без регистрации
Золото ЗОЛОТАЯ РАЗДАЧА! СКАЧАННОЕ НЕ ЗАСЧИТЫВАЕТСЯ! Золото
Дата: Зарегистрирован   [ Тип: внутренний ] Как тут cкачать?
MAGNET ссылка
MAGNET ссылка


Скачать .torrent

17 KB

Статус: проверено DHT
Скачан: торрент - 122 раз, раздача полностью - 2 раз
Размер: 1,7 GB
Оценка:  - (Голосов: 0)
Поблагодарили: 0
Поделиться ссылкой на эту раздачу с друзьями:
В контактеFacebookОдноклассникиTwitterLivejournalМой МирLiveinternet
 

 
Показать сообщения:    


Вы не можете начинать темы
Вы не можете отвечать на сообщения
Вы не можете редактировать свои сообщения
Вы не можете удалять свои сообщения
Вы не можете голосовать в опросах
Вы не можете прикреплять файлы к сообщениям
Вы можете скачивать файлы