Loading...
Error

Скачать Пища Богов / The Food of the Gods (Берт А. Гордон) [1976, ужасы, фантастика, DVDRip] [VO] торрент без регистрации

 
Статистика раздачи
Размер:  1,37 GB   |    Скачан:  101 раз
Сидов:  1  [  0 KB/s  ]  
 
Автор Сообщение

Marsianka

[] 

Информация о фильме
Название: Пища Богов
Оригинальное название: The Food of the Gods
Год выхода: 1976
Жанр: ужасы, фантастика
Режиссер: Берт А. Гордон
В ролях: Марджо Гортнер, Памела Франклин, Ральф Микер, Джон Сайфер, Ида Лупино, Джон МакЛиам, Белинда Баласки, Том Стовэлл, Чак Кортни, Рег Танниклифф

О фильме:
Футболист Морган вместе со своими друзьями отправляется на охоту на небольшой остров близ Канады. Неожиданно на них нападают гигантские осы, которые кусают их. Морган отправляется на поиски телефона, но в крестьянском амбаре его едва не убивает огромный цыплёнок. Владелица фермы миссис Скиннер отказывается предоставить Моргану возможность позвонить. Морган решает покинуть остров…




Страна: США
Студия: American International Pictures (AIP)
Продолжительность: 01:28:21
Перевод: Любительский одноголосый

Файл
Кодек: XviD
Качество: DVDRip
Видео: 704x384, 1822 kbps, 23,976 fps, 0.281 Bits/(Pixel*Frame)
AC3, 48 kHz, 192 kbps, 2 ch - русский
AC3, 48 kHz, 192 kbps, 2 ch - английский
Субтитры: Нет
Релиз от:

Автор рипа: _Bathory_
General
Complete name : G:RipThe.Food.Of.The.God.1976.DVDRip_by_Bathory.avi
Format : AVI
Format/Info : Audio Video Interleave
File size : 1.37 GiB
Duration : 1h 28mn
Overall bit rate : 2 216 Kbps

Video
ID : 0
Format : MPEG-4 Visual
Format profile : Advanced Simple@L5
Format settings, BVOP : 1
Format settings, QPel : No
Format settings, GMC : No warppoints
Format settings, Matrix : Default (MPEG)
Codec ID : XVID
Codec ID/Hint : XviD
Duration : 1h 28mn
Bit rate : 1 822 Kbps
Width : 704 pixels
Height : 384 pixels
Display aspect ratio : 1.85:1
Frame rate : 23.976 fps
Color space : YUV
Chroma subsampling : 4:2:0
Bit depth : 8 bits
Scan type : Progressive
Compression mode : Lossy
Bits/(Pixel*Frame) : 0.281
Stream size : 1.12 GiB (82%)
Writing library : XviD 1.2.1 (UTC 2008-12-04)

Audio #1
ID : 1
Format : AC-3
Format/Info : Audio Coding 3
Mode extension : CM (complete main)
Format settings, Endianness : Big
Codec ID : 2000
Duration : 1h 28mn
Bit rate mode : Constant
Bit rate : 192 Kbps
Channel(s) : 2 channels
Channel positions : Front: L R
Sampling rate : 48.0 KHz
Bit depth : 16 bits
Compression mode : Lossy
Stream size : 121 MiB (9%)
Alignment : Aligned on interleaves
Interleave, duration : 64 ms (1.53 video frames)
Interleave, preload duration : 192 ms
Title : VTS_05_1 T84 2_0ch 192Kbps DELAY 0ms_new

Audio #2
ID : 2
Format : AC-3
Format/Info : Audio Coding 3
Mode extension : CM (complete main)
Format settings, Endianness : Big
Codec ID : 2000
Duration : 1h 28mn
Bit rate mode : Constant
Bit rate : 192 Kbps
Channel(s) : 2 channels
Channel positions : Front: L R
Sampling rate : 48.0 KHz
Bit depth : 16 bits
Compression mode : Lossy
Stream size : 121 MiB (9%)
Alignment : Aligned on interleaves
Interleave, duration : 64 ms (1.53 video frames)
Interleave, preload duration : 192 ms
Title : VTS_05_1 T80 2_0ch 192Kbps DELAY 0ms_new



Скачать Пища.Богов.The.Food.of.the.Gods.(Берт.А.Гордон).[1976.ужасы.фантастика.DVDRip].[VO].torrent без регистрации
Золото ЗОЛОТАЯ РАЗДАЧА! СКАЧАННОЕ НЕ ЗАСЧИТЫВАЕТСЯ! Золото
Дата: Зарегистрирован   [ Тип: внутренний ] Как тут cкачать?
MAGNET ссылка
MAGNET ссылка


Скачать .torrent

14 KB

Статус: проверено DHT
Скачан: торрент - 101 раз, раздача полностью - 187 раз
Размер: 1,37 GB
Оценка:  - (Голосов: 0)
Поблагодарили: 0
Поделиться ссылкой на эту раздачу с друзьями:
В контактеFacebookОдноклассникиTwitterLivejournalМой МирLiveinternet
 

 
Показать сообщения:    


Вы не можете начинать темы
Вы не можете отвечать на сообщения
Вы не можете редактировать свои сообщения
Вы не можете удалять свои сообщения
Вы не можете голосовать в опросах
Вы не можете прикреплять файлы к сообщениям
Вы можете скачивать файлы