Loading...
Error

Скачать Маманя, Бюст и Живчик / Mother, Jugs & Speed (Питер Йэйтс) [1976, комедия, DVDRip-AVC] [MVO]+[Sub] торрент без регистрации

 
Статистика раздачи
Размер:  1,57 GB   |    Скачан:  111 раз
Сидов:  1  [  0 KB/s  ]  
 
Автор Сообщение

Marsianka

[] 

Информация о фильме
Название: Маманя, Бюст и Живчик
Оригинальное название: Mother, Jugs & Speed
Год выхода: 1976
Жанр: комедия
Режиссер: Питер Йэйтс / Peter Yates
В ролях: Ракел Уэлч /Raquel Welch, Билл Косби /Bill Cosby, Харви Кайтел /Harvey Keitel, Аллен Гарфилд /Allen Garfield, Л. К. Джоунс /L.Q. Jones, Брюс Дэвисон /Bruce Davison, Дик Баткас /Dick Butkus, Ларри Хэгман /Larry Hagman, Милт Кэймен /Milt Kamen, Барра Грант /Barra Grant

О фильме:
В Лос-Анджелесе вступает в силу новый закон: бригада скорой помощи, принявшая вызов и первой прибывшая на место, после оказания пациенту помощи получает вознаграждение. Две компании - "F+B" и "Юнити" - начинают борьбу за право первыми доставить больного в клинику. Сотрудники "F+B"- Маманя, Бюст и Живчик, несмотря на многочисленные трудности, возникающие на их пути, честно выполняют свой долг, и день за днем спасают жизни людей…




Страна: США
Студия: Twentieth Century Fox Film Corporation
Продолжительность: 01:38:19.185
Перевод: Профессиональный (многоголосый закадровый) 1 канал

Файл
Кодек: h.264
Качество: DVDRip-AVC
Видео: 712x360 (2.35:1) @ 842x360 (анаморф), 23.976 fps, AVC, ~1984 Kbps, 0.323 bits/pixel
Русский, 48.0 KHz, AC3, 1 ch, 112 Kbps
Английский, 48.0 KHz, AC3, 2 ch, 192 Kbps
Субтитры: Английские, VobSub
Исходник видео R1
Общее
Уникальный идентификатор : 207736498261971152962569806471359675351 (0x9C4898210FE6446ABC8E4C5963E4BBD7)
Полное имя : D:FilmsMamanya_Bust_i_Zhivchik.1976.DVDRip-AVC.mkv
Формат : Matroska
Версия формата : Version 4 / Version 2
Размер файла : 1,57 Гбайт
Продолжительность : 1 ч. 38 м.
Общий поток : 2292 Кбит/сек
Дата кодирования : UTC 2014-05-31 21:04:21
Программа кодирования : mkvmerge v6.9.1 ('Blue Panther') 64bit built on Apr 18 2014 18:23:38
Библиотека кодирования : libebml v1.3.0 + libmatroska v1.4.1

Видео
Идентификатор : 1
Формат : AVC
Формат/Информация : Advanced Video Codec
Профиль формата : High@L4.1
Параметр CABAC формата : Да
Параметр ReFrames формата : 16 кадров
Идентификатор кодека : V_MPEG4/ISO/AVC
Продолжительность : 1 ч. 38 м.
Битрейт : 1984 Кбит/сек
Ширина : 712 пикселей
Высота : 360 пикселей
Соотношение сторон : 2,35:1
Соотношение сторон в оригинале : 2,35:1
Режим частоты кадров : Постоянный
Частота кадров : 23,976 кадра/сек
Цветовое пространство : YUV
Субдискретизация насыщенности : 4:2:0
Битовая глубина : 8 бит
Тип развёртки : Прогрессивная
Бит/(Пиксели*Кадры) : 0.323
Размер потока : 1,33 Гбайт (85%)
Библиотека кодирования : x264 core 138 r2358 9e941d1
Настройки программы : cabac=1 / ref=16 / deblock=1:0:0 / analyse=0x3:0x133 / me=umh / subme=10 / psy=1 / psy_rd=1.10:0.10 / mixed_ref=1 / me_range=32 / chroma_me=1 / trellis=2 / 8x8dct=1 / cqm=0 / deadzone=21,11 / fast_pskip=0 / chroma_qp_offset=-3 / threads=8 / lookahead_threads=2 / sliced_threads=0 / nr=0 / decimate=0 / interlaced=0 / bluray_compat=0 / constrained_intra=0 / bframes=11 / b_pyramid=2 / b_adapt=2 / b_bias=0 / direct=3 / weightb=1 / open_gop=0 / weightp=2 / keyint=240 / keyint_min=23 / scenecut=60 / intra_refresh=0 / rc_lookahead=60 / rc=2pass / mbtree=0 / bitrate=1984 / ratetol=1.0 / qcomp=0.60 / qpmin=0 / qpmax=69 / qpstep=4 / cplxblur=20.0 / qblur=0.5 / vbv_maxrate=50000 / vbv_bufsize=62500 / nal_hrd=none / ip_ratio=1.40 / pb_ratio=1.30 / aq=1:1.00
Default : Нет
Forced : Нет
Коэффициенты матрицы : BT.601

Аудио #1
Идентификатор : 2
Формат : AC-3
Формат/Информация : Audio Coding 3
Расширение режима : CM (complete main)
Параметр Endianness формата : Big
Идентификатор кодека : A_AC3
Продолжительность : 1 ч. 38 м.
Вид битрейта : Постоянный
Битрейт : 112 Кбит/сек
Каналы : 1 канал
Расположение каналов : Front: C
Частота : 48,0 КГц
Битовая глубина : 16 бит
Метод сжатия : С потерями
Размер потока : 78,8 Мбайт (5%)
Язык : Russian
Default : Да
Forced : Нет

Аудио #2
Идентификатор : 3
Формат : AC-3
Формат/Информация : Audio Coding 3
Расширение режима : CM (complete main)
Параметр Endianness формата : Big
Идентификатор кодека : A_AC3
Продолжительность : 1 ч. 38 м.
Вид битрейта : Постоянный
Битрейт : 192 Кбит/сек
Каналы : 2 канала
Расположение каналов : Front: L R
Частота : 48,0 КГц
Битовая глубина : 16 бит
Метод сжатия : С потерями
Размер потока : 135 Мбайт (8%)
Язык : English
Default : Нет
Forced : Нет

Текст
Идентификатор : 4
Формат : VobSub
Режим смешивания : zlib
Идентификатор кодека : S_VOBSUB
Идентификатор кодека/Информация : The same subtitle format used on DVDs
Язык : English
Default : Нет
Forced : Нет

Меню
00:00:00.000 : en:Chapter 01
00:02:14.367 : en:Chapter 02
00:04:31.335 : en:Chapter 03
00:06:08.335 : en:Chapter 04
00:08:46.002 : en:Chapter 05
00:10:40.169 : en:Chapter 06
00:12:03.003 : en:Chapter 07
00:16:22.503 : en:Chapter 08
00:17:59.670 : en:Chapter 09
00:23:18.837 : en:Chapter 10
00:26:25.671 : en:Chapter 11
00:29:09.171 : en:Chapter 12
00:31:53.538 : en:Chapter 13
00:34:39.671 : en:Chapter 14
00:38:31.171 : en:Chapter 15
00:40:45.838 : en:Chapter 16
00:44:19.338 : en:Chapter 17
00:49:33.905 : en:Chapter 18
00:51:21.272 : en:Chapter 19
00:53:16.405 : en:Chapter 20
00:59:32.572 : en:Chapter 21
01:02:17.406 : en:Chapter 22
01:06:04.740 : en:Chapter 23
01:08:07.240 : en:Chapter 24
01:12:52.074 : en:Chapter 25
01:17:49.775 : en:Chapter 26
01:21:19.909 : en:Chapter 27
01:25:42.743 : en:Chapter 28
01:32:03.077 : en:Chapter 29
01:34:00.944 : en:Chapter 30
01:35:58.778 : en:Chapter 31
01:36:41.579 : en:Chapter 32
Релиз от: Temperest



Скачать Маманя.Бюст.и.Живчик.Mother.Jugs.&.Speed.(Питер.Йэйтс).[1976.комедия.DVDRip-AVC].[MVO]+[Sub].torrent без регистрации
Золото ЗОЛОТАЯ РАЗДАЧА! СКАЧАННОЕ НЕ ЗАСЧИТЫВАЕТСЯ! Золото
Дата: Зарегистрирован   [ Тип: внутренний ] Как тут cкачать?
MAGNET ссылка
MAGNET ссылка


Скачать .torrent

16 KB

Статус: проверено DHT
Скачан: торрент - 111 раз, раздача полностью - 3 раз
Размер: 1,57 GB
Оценка:  - (Голосов: 0)
Поблагодарили: 2
Поделиться ссылкой на эту раздачу с друзьями:
В контактеFacebookОдноклассникиTwitterLivejournalМой МирLiveinternet
 

 
Показать сообщения:    


Вы не можете начинать темы
Вы не можете отвечать на сообщения
Вы не можете редактировать свои сообщения
Вы не можете удалять свои сообщения
Вы не можете голосовать в опросах
Вы не можете прикреплять файлы к сообщениям
Вы можете скачивать файлы