Loading...
Error

Скачать Псих команда / Команда мечты / The Dream Team (Ховард Зифф / Howard Zieff) [1989, Комедия, Криминал, DVDRip] [MVO] (СТС) торрент без регистрации

 
Статистика раздачи
Размер:  1,43 GB   |    Скачан:  2385 раз
Сидов:  1  [  0 KB/s  ]  
 
Автор Сообщение

leon030982

[] 

Псих команда / Команда мечты / The Dream Team


Год выпуска: 1989
Страна: США
Жанр: Комедия, Криминал
Продолжительность: 01:47:40
Перевод: Профессиональный (многоголосый закадровый)[Санкт-Петербург 6 канал по заказу СТС, 1998 год]
Cубтитры: нет

Режиссер: Ховард Зифф / Howard Zieff

В ролях: Майкл Китон (Michael Keaton), Кристофер Ллойд (Christopher Lloyd), Питер Бойл (Peter Boyle), Стефен Ферст (Stephen Furst), Деннис Буцикарис (Dennis Boutsikaris), Лоррейн Бракко (Lorraine Bracco), Майло О`Ши (Milo O'Shea), Филип Боско (Philip Bosco), Джеймс Римар (James Remar), Джек Гилпин (Jack Gilpin)

Описание: Прогрессивный врач-психиатр, считая что это может помочь в лечении его подопечных, вывозит четырех психов в город на бейсбольный матч. Однако, волей обстоятельств, он попадает в крутую историю и исчезает, а психи остаются в городе одни, предоставленные сами себе. Билли (Китон), патологический лжец с болезненной склонностью к паникерству, попадает из одной истории в другую вместе со своими не совсем адекватными товарищами: Генри (Кристофер Ллойд), придурком-ловкачом, Джеком (Питер Бойл), бывшим высокопоставленным рекламистам, считающим себя Христом, и Альбертом (Стивен Ферст), кататоником, проходящим курс психоанализа…
В этом развеселом фарсе компания психов переживает массу невероятных приключений, пытаясь найти своего доктора и вызволить его из лап парочки продажных копов.



Качество: DVDRip
Формат видео: AVI
Видео кодек: XviD
Аудио кодек: AC3
Видео: 720x552 (1.30:1), 25 fps, XviD MPEG-4 ~1797 kbps avg, 0.18 bit/pixel
Аудио: 48 kHz, AC3 Dolby Digital, 1/0 (C) ch, ~96.00 kbps avg
General
Complete name : D:\dream team\Команда Мечты_The Dream Team [1989.DVDRip].avi
Format : AVI
Format/Info : Audio Video Interleave
Format profile : OpenDML
File size : 1.43 GiB
Duration : 1h 47mn
Overall bit rate : 1 901 Kbps
TCOD : 0
TCDO : 64608800000
Video
ID : 0
Format : MPEG-4 Visual
Format profile : Advanced Simple@L5
Format settings, BVOP : 2
Format settings, QPel : No
Format settings, GMC : No warppoints
Format settings, Matrix : Default (H.263)
Muxing mode : Packed bitstream
Codec ID : XVID
Codec ID/Hint : XviD
Duration : 1h 47mn
Bit rate : 1 713 Kbps
Width : 720 pixels
Height : 552 pixels
Display aspect ratio : 4:3
Frame rate : 25.000 fps
Color space : YUV
Chroma subsampling : 4:2:0
Bit depth : 8 bits
Scan type : Progressive
Compression mode : Lossy
Bits/(Pixel*Frame) : 0.172
Stream size : 1.29 GiB (90%)
Writing library : XviD 64
Audio
ID : 1
Format : AC-3
Format/Info : Audio Coding 3
Mode extension : CM (complete main)
Format settings, Endianness : Big
Codec ID : 2000
Duration : 1h 47mn
Bit rate mode : Constant
Bit rate : 96.0 Kbps
Channel(s) : 1 channel
Channel positions : Front: C
Sampling rate : 48.0 KHz
Bit depth : 16 bits
Compression mode : Lossy
Stream size : 73.9 MiB (5%)
Alignment : Aligned on interleaves
Interleave, duration : 250 ms (6.25 video frames)
Interleave, preload duration : 224 ms



Скачать Псих.команда.Команда.мечты.The.Dream.Team.(Ховард.Зифф.Howard.Zieff).[1989.Комедия.Криминал.DVDRip].[MVO].(СТС).torrent без регистрации
Золото ЗОЛОТАЯ РАЗДАЧА! СКАЧАННОЕ НЕ ЗАСЧИТЫВАЕТСЯ! Золото
Дата: Зарегистрирован   [ Тип: внутренний ] Как тут cкачать?
MAGNET ссылка
MAGNET ссылка


Скачать .torrent

15 KB

Статус: проверено DHT
Скачан: торрент - 2385 раз, раздача полностью - 14 раз
Размер: 1,43 GB
Оценка:  5 (Голосов: 2)
Поблагодарили: 1
Поделиться ссылкой на эту раздачу с друзьями:
В контактеFacebookОдноклассникиTwitterLivejournalМой МирLiveinternet
 

 
Показать сообщения:    


Вы не можете начинать темы
Вы не можете отвечать на сообщения
Вы не можете редактировать свои сообщения
Вы не можете удалять свои сообщения
Вы не можете голосовать в опросах
Вы не можете прикреплять файлы к сообщениям
Вы можете скачивать файлы