Loading...
Error

Скачать Смертельная гонка / Death Race (Пол У. С. Андерсон) [2008, фантастика, боевик, триллер, BDRip-AVC] [Dub] торрент без регистрации

 
Статистика раздачи
Размер:  3,27 GB   |    Скачан:  131 раз
Сидов:  1  [  0 KB/s  ]  
 
Автор Сообщение

Marsianka

[] 

Смертельная гонка / Death Race (2008) BDRip-AVC | iPad | D
«Get ready for a killer ride»


Название: Смертельная гонка
Оригинальное название: Death Race
Год выхода: 2008
Жанр: фантастика, боевик, триллер
Режиссер: Пол У. С. Андерсон
В ролях: Джейсон Стэйтем, Джоан Аллен, Иэн МакШейн, Тайриз Гибсон, Натали Мартинес, Макс Райан, Джейсон Кларк, Фредерик Колер, Джейкоб Варгас, Джастин Мэдер

О фильме:
Трехкратный чемпион-гонщик Дженсен Эймс посажен в тюрьму за убийство, которого не совершал. Вместо того, чтобы выпустить его на свободу, тюремщики заставляют его вместе с самыми отъявленными преступниками участвовать в кровавом состязании. Оказавшись за рулем чудовищного автомобиля, оборудованного автоматами, огнеметами и гранатометами, этот отчаянный человек разрушит все на своем пути, чтобы выиграть самую зрелищную гонку на выживание на Земле.




Страна: США, Германия, Великобритания
Студия: Cruise/Wagner Productions, Impact Pictures, Relativity Media, Universal Pictures

Продолжительность: 01:50:35
Перевод: Русский дублированный

Файл
Кодек: H.264
Качество: BDRip [576p]
Видео: 1024x436 (2.35:1) at 23.976 fps, AVC at 4000 kbps
1: АAС 2.0 152 kbps - Русский дублированный
Субтитры: отсутствуют

General
Complete name : I:modoutDeath.Race.2008.576p.D.m4v
Format : MPEG-4
Codec ID : M4V
File size : 3.27 GiB
Duration : 1h 50mn
Overall bit rate mode : Variable
Overall bit rate : 4 232 Kbps
Movie name : Смертельная гонка
Performer : Paul W.S. Anderson
Genre : Action & Adventure
ContentType : Short Film
Deion : Римейк фильма Пола Бартела "Смертельные гонки 2000" (1975 г.) Трехкратный чемпион-гонщик Дженсен Эймс посажен в тюрьму за убийство, которого не совершал.
Recorded date : UTC 2008-08-22 07:00:00
Encoded date : UTC 2014-06-03 14:51:15
Tagged date : UTC 2014-06-03 15:17:50
Copyright : © 2008 Universal Studios. All Rights Reserved.
Cover : Yes
Comment : «Get ready for a killer ride»
ContentRating : mpaa|R|400|

Title/Sort : Death Race
LongDeion : Римейк фильма Пола Бартела "Смертельные гонки 2000" (1975 г.) Трехкратный чемпион-гонщик Дженсен Эймс посажен в тюрьму за убийство, которого не совершал. Вместо того, чтобы выпустить его на свободу, тюремщики заставляют его вместе с самыми отъявленными преступниками участвовать в кровавом состязании. Оказавшись за рулем чудовищного автомобиля, оборудованного автоматами, огнеметами и гранатометами, этот отчаянный человек разрушит все на своем пути, чтобы выиграть самую зрелищную гонку на выживание на Земле.
AppleStoreCatalogID : 291147060
Vendor : Apple:vendor_id:2008-102136

Video
ID : 1
Format : AVC
Format/Info : Advanced Video Codec
Format profile : High@L4.1
Format settings, CABAC : Yes
Format settings, ReFrames : 9 frames
Codec ID : avc1
Codec ID/Info : Advanced Video Coding
Duration : 1h 50mn
Bit rate : 4 065 Kbps
Maximum bit rate : 12.5 Mbps
Width : 1 024 pixels
Height : 436 pixels
Display aspect ratio : 2.35:1
Frame rate mode : Constant
Frame rate : 23.976 fps
Color space : YUV
Chroma subsampling : 4:2:0
Bit depth : 8 bits
Scan type : Progressive
Bits/(Pixel*Frame) : 0.380
Stream size : 3.14 GiB (96%)
Title : Death.Race.2008
Language : English
Encoded date : UTC 2014-06-03 14:51:15
Tagged date : UTC 2014-06-03 14:51:54

Audio
ID : 2
Format : AAC
Format/Info : Advanced Audio Codec
Format profile : LC
Codec ID : 40
Duration : 1h 50mn
Bit rate mode : Variable
Bit rate : 158 Kbps
Maximum bit rate : 214 Kbps
Channel(s) : 2 channels
Channel positions : Front: L R
Sampling rate : 48.0 KHz
Compression mode : Lossy
Stream size : 125 MiB (4%)
Title : Dub
Language : Russian
Encoded date : UTC 2014-06-03 14:48:06
Tagged date : UTC 2014-06-03 14:51:54

Menu
ID : 3
Codec ID : text
Duration : 1h 50mn
Encoded date : UTC 2014-06-03 14:52:26
Tagged date : UTC 2014-06-03 14:52:26
Bit rate mode : CBR

x264 [info]: frame I:1389 Avg QP:16.97 size: 89446
x264 [info]: frame P:45180 Avg QP:18.83 size: 39145
x264 [info]: frame B:112528 Avg QP:20.76 size: 13141
x264 [info]: consecutive B-frames: 6.8% 6.9% 15.3% 22.0% 16.2% 23.4% 6.3% 1.3% 1.1% 0.4% 0.1% 0.1% 0.0%
x264 [info]: mb I I16..4: 26.3% 41.3% 32.5%
x264 [info]: mb P I16..4: 5.3% 15.3% 5.3% P16..4: 20.4% 32.1% 14.6% 5.3% 0.9% skip: 0.8%
x264 [info]: mb B I16..4: 0.3% 2.0% 0.9% B16..8: 34.6% 22.5% 4.8% direct: 8.4% skip:26.4% L0:36.1% L1:44.9% BI:19.0%
x264 [info]: 8x8 transform intra:58.2% inter:39.6%
x264 [info]: coded y,uvDC,uvAC intra: 94.3% 57.7% 27.5% inter: 38.1% 10.5% 2.8%
x264 [info]: i16 v,h,dc,p: 1% 2% 31% 65%
x264 [info]: i8 v,h,dc,ddl,ddr,vr,hd,vl,hu: 11% 13% 13% 8% 10% 10% 12% 10% 13%
x264 [info]: i4 v,h,dc,ddl,ddr,vr,hd,vl,hu: 32% 9% 6% 7% 10% 9% 10% 8% 10%
x264 [info]: i8c dc,h,v,p: 25% 43% 19% 14%
x264 [info]: Weighted P-Frames: Y:6.0% UV:3.2%
x264 [info]: ref P L0: 55.0% 11.6% 13.3% 6.1% 4.4% 3.4% 2.8% 1.6% 1.5% 0.5% 0.0%
x264 [info]: ref B L0: 87.1% 6.2% 2.8% 1.4% 1.0% 0.8% 0.6% 0.2%
x264 [info]: ref B L1: 95.1% 4.9%
x264 [info]: kb/s:4064.80


Sort Name: Death Race
XID: Apple:vendor_id:2008-102136
Content ID: 291147060
Copyright: © 2008 Universal Studios. All Rights Reserved.
ScreenWriters: Пол У. С. Андерсон, Роберт Том, Чарльз Б. Гриффит
Producers: Пол У. С. Андерсон, Джереми Болт, Пола Вагнер
Director: Пол У. С. Андерсон
Cast: Джейсон Стэйтем, Джоан Аллен, Иэн МакШейн, Тайриз Гибсон, Натали Мартинез, Макс Райан, Джейсон Кларк, Фредерик Колер, Джейкоб Варгас, Джастин Мэдер // Jason Statham (Jensen Ames), Joan Allen (Warden Hennessey), Ian McShane (Coach), Tyrese Gibson (Machine Gun Joe Mason), Natalie Martinez (Elizabeth Case), Max Ryan (Pachenko), Jacob Vargas (Gunner), Jason Clarke (Guard Ulrich), Fred Koehler (Lists), Justin Mader (Travis Colt), Robert LaSardo (Hector Grimm), Robin Shou (14K)
Rating: R
Long Deion: Римейк фильма Пола Бартела "Смертельные гонки 2000" (1975 г.) Трехкратный чемпион-гонщик Дженсен Эймс посажен в тюрьму за убийство, которого не совершал. Вместо того, чтобы выпустить его на свободу, тюремщики заставляют его вместе с самыми отъявленными преступниками участвовать в кровавом состязании. Оказавшись за рулем чудовищного автомобиля, оборудованного автоматами, огнеметами и гранатометами, этот отчаянный человек разрушит все на своем пути, чтобы выиграть самую зрелищную гонку на выживание на Земле.
Deion: Римейк фильма Пола Бартела "Смертельные гонки 2000" (1975 г.) Трехкратный чемпион-гонщик Дженсен Эймс посажен в тюрьму за убийство, которого не совершал.
Release Date: 2008-08-22T07:00:00Z
Genre: Action & Adventure
Artist: Paul W.S. Anderson
Name: Смертельная гонка
Comments: «Get ready for a killer ride»



Скачать Смертельная.гонка.Death.Race.(Пол.У.С.Андерсон).[2008.фантастика.боевик.триллер.BDRip-AVC].[Dub].torrent без регистрации
Золото ЗОЛОТАЯ РАЗДАЧА! СКАЧАННОЕ НЕ ЗАСЧИТЫВАЕТСЯ! Золото
Дата: Зарегистрирован   [ Тип: внутренний ] Как тут cкачать?
MAGNET ссылка
MAGNET ссылка


Скачать .torrent

17 KB

Статус: проверено DHT
Скачан: торрент - 131 раз, раздача полностью - 196 раз
Размер: 3,27 GB
Оценка:  - (Голосов: 0)
Поблагодарили: 1
Поделиться ссылкой на эту раздачу с друзьями:
В контактеFacebookОдноклассникиTwitterLivejournalМой МирLiveinternet
 

 
Показать сообщения:    


Вы не можете начинать темы
Вы не можете отвечать на сообщения
Вы не можете редактировать свои сообщения
Вы не можете удалять свои сообщения
Вы не можете голосовать в опросах
Вы не можете прикреплять файлы к сообщениям
Вы можете скачивать файлы