Loading...
Error

Скачать Петля / Тугая петля / Tightrope (Ричард Таггл) [1984, триллер, драма, криминал, детектив, BDRip] [Dub]+[AVO] торрент без регистрации

 
Статистика раздачи
Размер:  1,46 GB   |    Скачан:  99 раз
Сидов:  1  [  0 KB/s  ]  
 
Автор Сообщение

Marsianka

[] 

Информация о фильме
Название: Петля / Тугая петля
Оригинальное название: Tightrope
Год выхода: 1984
Жанр: триллер, драма, криминал, детектив
Режиссер: Ричард Таггл
В ролях: Клинт Иствуд, Женевьев Бюжо, Дэн Хедайя, Элисон Иствуд, Дженни Бек, Марко Ст. Джон, Ребекка Перл, Реджина Ричардсон, Рэнди Брукс, Джейми Роуз

О фильме:
Психопат затеял с опытным полицейским опасную игру, заставляя мыслить так же. Он подбирается близко к самому дорогому для Уэйса — дочерям Аманде и Пенни. Очаровательная Берил Тибодей из центра самозащиты в лице взволнованной общественности предлагает свою помощь, и сама чуть не становится одной из жертв.




Страна: США
Студия: Paramount Pictures, Hughes Entertainment
Продолжительность: 01:54:21
Перевод: Профессиональный (полное дублирование)|Варус-Видео|, Авторский (одноголосый, закадровый) В.Горчаков

Файл
Кодек: XviD
Качество: BDRip
Видео: 704x400, 23,976 fps, 1430 kbps
Аудио 1 : AC3, 2 ch, 192 kbps............Профессиональный (полное дублирование)|Варус-Видео|
Аудио 2 : AC3, 2 ch, 192 kbps............Авторский (одноголосый, закадровый) В.Горчаков
Общее
Полное имя : Tugaya.Petlia.1984.BDRip.avi
Формат : AVI
Формат/Информация : Audio Video Interleave
Размер файла : 1,46 Гбайт
Продолжительность : 1 ч. 54 м.
Общий поток : 1828 Кбит/сек
Программа кодирования : VirtualDubMod 1.5.10.2 (build 2542/release)
Библиотека кодирования : VirtualDubMod build 2542/release

Видео
Идентификатор : 0
Формат : MPEG-4 Visual
Профиль формата : Advanced Simple@L5
Параметр BVOP формата : 1
Параметр QPel формата : Нет
Параметр GMC формата : Без точки перехода
Параметр матрицы формата : Выборочная
Идентификатор кодека : XVID
Идентификатор кодека/Подсказка : XviD
Продолжительность : 1 ч. 54 м.
Битрейт : 1430 Кбит/сек
Ширина : 704 пикс.
Высота : 400 пикс.
Соотношение сторон : 16:9
Частота кадров : 23,976 кадр/сек
Цветовое пространство : YUV
Подвыборка цветности : 4:2:0
Битовая глубина : 8 бит
Тип развёртки : Прогрессивная
Метод сжатия : С потерями
Бит/(Пиксели*Кадры) : 0.212
Размер потока : 1,14 Гбайт (78%)
Библиотека кодирования : XviD 65

Аудио #1
Идентификатор : 1
Формат : AC-3
Формат/Информация : Audio Coding 3
Расширение режима : CM (complete main)
Идентификатор кодека : 2000
Продолжительность : 1 ч. 54 м.
Вид битрейта : Постоянный
Битрейт : 192 Кбит/сек
Канал(ы) : 2 канала(ов)
Расположение каналов : Front: L R
Частота : 48,0 КГц
Битовая глубина : 16 бит
Метод сжатия : С потерями
Размер потока : 157 Мбайт (11%)
Выравнивание : Разделение по промежуткам
Продолжительность промежутка : 42 мс. (1,00 видеокадр)
Время предзагрузки промежутка : 500 ms

Аудио #2
Идентификатор : 2
Формат : AC-3
Формат/Информация : Audio Coding 3
Расширение режима : CM (complete main)
Идентификатор кодека : 2000
Продолжительность : 1 ч. 54 м.
Вид битрейта : Постоянный
Битрейт : 192 Кбит/сек
Канал(ы) : 2 канала(ов)
Расположение каналов : Front: L R
Частота : 48,0 КГц
Битовая глубина : 16 бит
Метод сжатия : С потерями
Размер потока : 157 Мбайт (11%)
Выравнивание : Разделение по промежуткам
Продолжительность промежутка : 42 мс. (1,00 видеокадр)
Время предзагрузки промежутка : 500 ms
Релиз от: Leon-masl



Скачать Петля.Тугая.петля.Tightrope.(Ричард.Таггл).[1984.триллер.драма.криминал.детектив.BDRip].[Dub]+[AVO].torrent без регистрации
Золото ЗОЛОТАЯ РАЗДАЧА! СКАЧАННОЕ НЕ ЗАСЧИТЫВАЕТСЯ! Золото
Дата: Зарегистрирован   [ Тип: внутренний ] Как тут cкачать?
MAGNET ссылка
MAGNET ссылка


Скачать .torrent

15 KB

Статус: проверено DHT
Скачан: торрент - 99 раз, раздача полностью - 5 раз
Размер: 1,46 GB
Оценка:  5 (Голосов: 1)
Поблагодарили: 1
Поделиться ссылкой на эту раздачу с друзьями:
В контактеFacebookОдноклассникиTwitterLivejournalМой МирLiveinternet
 

 
Показать сообщения:    


Вы не можете начинать темы
Вы не можете отвечать на сообщения
Вы не можете редактировать свои сообщения
Вы не можете удалять свои сообщения
Вы не можете голосовать в опросах
Вы не можете прикреплять файлы к сообщениям
Вы можете скачивать файлы