Loading...
Error

Скачать Предсказание / Heaven (Скотт Рейнольдс) [1998, триллер, криминал, DVDRip] торрент без регистрации

 
Статистика раздачи
Размер:  1,38 GB   |    Скачан:  94 раза
Сидов:  1  [  0 KB/s  ]  
 
Автор Сообщение

Marsianka

[] 

Информация о фильме
Название: Предсказание
Оригинальное название: Heaven
Год выхода: 1998
Жанр: триллер, криминал
Режиссер: Скотт Рейнольдс
В ролях: Мартин Донован, Дэниэл Эдвардс, Ричард Шифф, Джоэнна Гоуинг, Патрик Мэлахайд, Карл Урбан, Майкл Лэнгли, Джереми Бирчал, Клинт Шарплин, Бэрри Спринг

О фильме:
«Мир преуспевающего архитектора Роберта Марлинга рухнул после того, как его страсть к алкоголю и азартным играм оставила его без работы и семьи. Падение Роберта продолжалось неумолимо, пока не явилась заманчивая возможность спасения, за которую архитектор ухватился словно за спасательный круг. Один из вновь обретенных карточных «корешей» Роберта, владелец злачного притона, предложил Марлингу перестроить его стрип-клуб «Рай». Именно в «Раю» и произошла роковая встреча…» (описание с «Кинопоиска»), мое мнение — годный фильм, если смотреть не предвзято.




Страна: Новая Зеландия, США
Продолжительность: 01:38:54
Перевод: Профессиональный (многоголосый закадровый)

Файл
Кодек: XviD
Качество: DVDRip
Видео: 720x304 (2.37:1), 25 fps, XviD build 50 ~1699 kbps avg, 0.31 bit/pixel
Звук: 48 kHz, AC3 Dolby Digital, 2/0 (L,R) ch, ~192 kbps
General
Complete name : Предсказание - Heaven.avi
Format : AVI
Format/Info : Audio Video Interleave
File size : 1.38 GiB
Duration : 1h 43mn
Overall bit rate : 1 901 Kbps
Writing application : VirtualDubMod 1.5.10.3 | www.virtualdub-fr.org || (build 2550/release)
Writing library : VirtualDubMod build 2550/release

Video
ID : 0
Format : MPEG-4 Visual
Format profile : Advanced Simple@L5
Format settings, BVOP : 2
Format settings, QPel : No
Format settings, GMC : No warppoints
Format settings, Matrix : Custom
Codec ID : XVID
Codec ID/Hint : XviD
Duration : 1h 43mn
Bit rate : 1 625 Kbps
Width : 720 pixels
Height : 304 pixels
Display aspect ratio : 2.35:1
Frame rate : 25.000 fps
Color space : YUV
Chroma subsampling : 4:2:0
Bit depth : 8 bits
Scan type : Progressive
Compression mode : Lossy
Bits/(Pixel*Frame) : 0.297
Stream size : 1.18 GiB (85%)
Writing library : XviD 1.2.1 (UTC 2008-12-04)

Audio
ID : 1
Format : AC-3
Format/Info : Audio Coding 3
Mode extension : CM (complete main)
Format settings, Endianness : Big
Codec ID : 2000
Duration : 1h 43mn
Bit rate mode : Constant
Bit rate : 192 Kbps
Channel(s) : 2 channels
Channel positions : Front: L R
Sampling rate : 48.0 KHz
Bit depth : 16 bits
Compression mode : Lossy
Stream size : 143 MiB (10%)
Alignment : Split accross interleaves



Скачать Предсказание.Heaven.(Скотт.Рейнольдс).[1998.триллер.криминал.DVDRip].torrent без регистрации
Золото ЗОЛОТАЯ РАЗДАЧА! СКАЧАННОЕ НЕ ЗАСЧИТЫВАЕТСЯ! Золото
Дата: Зарегистрирован   [ Тип: внутренний ] Как тут cкачать?
MAGNET ссылка
MAGNET ссылка


Скачать .torrent

14 KB

Статус: проверено DHT
Скачан: торрент - 94 раз, раздача полностью - 4 раз
Размер: 1,38 GB
Оценка:  - (Голосов: 0)
Поблагодарили: 0
Поделиться ссылкой на эту раздачу с друзьями:
В контактеFacebookОдноклассникиTwitterLivejournalМой МирLiveinternet
 

 
Показать сообщения:    


Вы не можете начинать темы
Вы не можете отвечать на сообщения
Вы не можете редактировать свои сообщения
Вы не можете удалять свои сообщения
Вы не можете голосовать в опросах
Вы не можете прикреплять файлы к сообщениям
Вы можете скачивать файлы