Loading...
Error

Скачать Деньги решают все / Money Talks (Бретт Рэтнер) [1997, комедия, боевик, WEB-DLRip] [MVO (R5)] торрент без регистрации

 
Статистика раздачи
Размер:  1,46 GB   |    Скачан:  96 раз
Сидов:  1  [  0 KB/s  ]  
 
Автор Сообщение

Marsianka

[] 

Информация о фильме
Название: Деньги решают все
Оригинальное название: Money Talks
Год выхода: 1997
Жанр: комедия, боевик
Режиссер: Бретт Рэтнер / Brett Ratner
В ролях: Крис Такер, Чарли Шин, Хэзер Локлир, Элиз Нил, Пол Сорвино, Дэвид Ли МакЛэйн, Виктор Феррерира, Гари Бриггс, Ларри Хэнкин, Нэйтан Андерсон

О фильме:
Криминальный телерепортер Джеймс Рассел становится виновником того, что мелкого чернокожего спекулянта Фрэнка Хэтчета сначала арестовывают, а потом обвиняют в убийстве полицейских при побеге из тюремного автобуса. Скрывающийся от полиции Фрэнк вызывает репортера на встречу и требует от него помощи. Джеймс соглашается при условии, что беглец даст ему эксклюзивное сенсационное интервью... Дальше все как в кино: погони, перестрелки и хэппи энд...




Страна: США
Студия: New Line Cinema
Продолжительность: 01:35:43
Перевод: Профессиональный (многоголосый закадровый) R5

Файл
Кодек: XviD
Качество: WEB-DLRip
Видео: 720x304, 23,976 fps, 1729 kbps
Звук: AC3, 6 ch, 448 kbps, 48.0 KHz
Общее
Полное имя : Money.Talks.1997.WEB-DLRip.avi
Формат : AVI
Формат/Информация : Audio Video Interleave
Размер файла : 1,46 Гбайт
Продолжительность : 1 ч. 35 м.
Общий поток : 2186 Кбит/сек
Программа кодирования : VirtualDubMod 1.5.10.3 | www.virtualdub-fr.org || (build 2550/release)
Библиотека кодирования : VirtualDubMod build 2550/release

Видео
Идентификатор : 0
Формат : MPEG-4 Visual
Профиль формата : Advanced Simple@L5
Параметр BVOP формата : 1
Параметр QPel формата : Нет
Параметр GMC формата : Без точки перехода
Параметр матрицы формата : Выборочная
Идентификатор кодека : XVID
Идентификатор кодека/Подсказка : XviD
Продолжительность : 1 ч. 35 м.
Битрейт : 1729 Кбит/сек
Ширина : 720 пикс.
Высота : 304 пикс.
Соотношение сторон : 2,35:1
Частота кадров : 23,976 кадр/сек
Цветовое пространство : YUV
Подвыборка цветности : 4:2:0
Битовая глубина : 8 бит
Тип развёртки : Прогрессивная
Метод сжатия : С потерями
Бит/(Пиксели*Кадры) : 0.329
Размер потока : 1,16 Гбайт (79%)
Библиотека кодирования : XviD 73

Аудио
Идентификатор : 1
Формат : AC-3
Формат/Информация : Audio Coding 3
Расширение режима : CM (complete main)
Идентификатор кодека : 2000
Продолжительность : 1 ч. 35 м.
Вид битрейта : Постоянный
Битрейт : 448 Кбит/сек
Канал(ы) : 6 канала(ов)
Расположение каналов : Front: L C R, Side: L R, LFE
Частота : 48,0 КГц
Битовая глубина : 16 бит
Метод сжатия : С потерями
Размер потока : 307 Мбайт (20%)
Выравнивание : Разделение по промежуткам
Продолжительность промежутка : 42 мс. (1,00 видеокадр)
Время предзагрузки промежутка : 500 ms
Релиз от: Leon-masl



Скачать Деньги.решают.все.Money.Talks.(Бретт.Рэтнер).[1997.комедия.боевик.WEB-DLRip].[MVO.(R5)].torrent без регистрации
Золото ЗОЛОТАЯ РАЗДАЧА! СКАЧАННОЕ НЕ ЗАСЧИТЫВАЕТСЯ! Золото
Дата: Зарегистрирован   [ Тип: внутренний ] Как тут cкачать?
MAGNET ссылка
MAGNET ссылка


Скачать .torrent

15 KB

Статус: проверено DHT
Скачан: торрент - 96 раз, раздача полностью - 7 раз
Размер: 1,46 GB
Оценка:  - (Голосов: 0)
Поблагодарили: 1
Поделиться ссылкой на эту раздачу с друзьями:
В контактеFacebookОдноклассникиTwitterLivejournalМой МирLiveinternet
 

 
Показать сообщения:    


Вы не можете начинать темы
Вы не можете отвечать на сообщения
Вы не можете редактировать свои сообщения
Вы не можете удалять свои сообщения
Вы не можете голосовать в опросах
Вы не можете прикреплять файлы к сообщениям
Вы можете скачивать файлы