Loading...
Error

Скачать Городская полиция / Metro (Томас Картер) [1997, боевик, триллер, драма, комедия, криминал, HDTVRip-AVC] [Dub]+[Оригинал]+[Sub]x2 торрент без регистрации

 
Статистика раздачи
Размер:  2,19 GB   |    Скачан:  109 раз
Сидов:  3  [  0 KB/s  ]  
 
Автор Сообщение

Marsianka

[] 

Страна: США
Производство: Caravan Pictures, Roger Birnbaum Productions, Touchstone Pictures
Жанр: боевик, триллер, драма, комедия, криминал
Год выпуска: 1997
Продолжительность: 01:52:44

Перевод: Профессиональный (полное дублирование)
Оригинальная аудиодорожка: английский
Cубтитры: русский, английский

Режиссер: Томас Картер / Thomas Carter

В ролях:
Эдди Мёрфи / Eddie Murphy, Ким Мийори / Kim Miyori, Арт Эванс / Art Evans, Джеймс Карпентер / James Carpenter, Майкл Рапапорт / Michael Rapaport, Донал Лог / Donal Logue, Джени Чуа / Jeni Chua, Майкл Уинкотт / Michael Wincott, Кармен Эджого / Carmen Ejogo...

Роли дублировали:
Вадим Гущин, Анатолий Петров, Олег Куликович, Мария Мушкатина, Валерий Никитенко...

Описание:
Эдди Мэрфи играет роль полицейского, остроумного, крутого. Его зовут Скотт Роупер, и он лучший специалист по переговорам с преступниками, захватывающими заложников. Сюжет строится на его противостоянии с похитителем драгоценностей Майклом Корда, убившим его партнера и лучшего друга. Роупер сумел поймать его, но Корда бежит из тюрьмы, берет в заложницы любимую девушку Скотта по имени Ронни. После этого рассвирепевший Роупер и отданный ему в ученики спецназовец и великолепный снайпер Кевин МакКолл вдвоем выручают девушку из рук умного психопата…

Исходник: HDTV 1080i
Тип релиза: HDTVRip-AVC
Контейнер: MKV

Видео: 1024x576 (16:9), 25,000 fps, H264 ~ 2198 kbps avg, 0.149 bit/pixel
Аудио: 48 kHz, Dolby Digital AC3 2.0, 192 kbps DUB
Аудио: 48 kHz, Dolby Digital AC3 5.1, 384 kbps Английский
Оригинальная навигация по главам: есть
Субтитры: SoftSub (srt)
Раздача от:

Общее
Полное имя : Gorodskaya.policiya.1997.HDTVRip-AVC_[New-team]_by_AVP_Studio.mkv
Формат : Matroska
Версия формата : Version 4 / Version 2
Размер файла : 2,19 Гбайт
Продолжительность : 1 ч. 52 м.
Общий поток : 2776 Кбит/сек
Название фильма : Gorodskaya.policiya.1997.HDTVRip-AVC_[New-team]_by_AVP_Studio
Дата кодирования : UTC 2014-06-04 19:40:24
Программа кодирования : mkvmerge v6.9.1 ('Blue Panther') 64bit built on Apr 18 2014 18:23:38
Библиотека кодирования : libebml v1.3.0 + libmatroska v1.4.1

Видео
Идентификатор : 1
Формат : AVC
Формат/Информация : Advanced Video Codec
Профиль формата : High@L4.1
Параметр CABAC формата : Да
Параметр ReFrames формата : 8 кадров
Идентификатор кодека : V_MPEG4/ISO/AVC
Продолжительность : 1 ч. 52 м.
Битрейт : 2198 Кбит/сек
Ширина : 1024 пикселя
Высота : 576 пикселей
Соотношение сторон : 16:9
Режим частоты кадров : Постоянный
Частота кадров : 25,000 кадров/сек
Цветовое пространство : YUV
Субдискретизация насыщенности : 4:2:0
Битовая глубина : 8 бит
Тип развёртки : Прогрессивная
Бит/(Пиксели*Кадры) : 0.149
Размер потока : 1,69 Гбайт (77%)
Заголовок : Источник HDTV
Библиотека кодирования : x264 core 138 r2356 a1d3d17
Настройки программы : cabac=1 / ref=8 / deblock=1:-3:-2 / analyse=0x3:0x113 / me=umh / subme=10 / psy=1 / psy_rd=1.00:0.05 / mixed_ref=1 / me_range=32 / chroma_me=1 / trellis=2 / 8x8dct=1 / cqm=0 / deadzone=21,11 / fast_pskip=1 / chroma_qp_offset=-3 / threads=6 / lookahead_threads=1 / sliced_threads=0 / nr=0 / decimate=0 / interlaced=0 / bluray_compat=0 / constrained_intra=0 / bframes=8 / b_pyramid=2 / b_adapt=2 / b_bias=0 / direct=3 / weightb=1 / open_gop=0 / weightp=2 / keyint=250 / keyint_min=25 / scenecut=40 / intra_refresh=0 / rc_lookahead=40 / rc=2pass / mbtree=1 / bitrate=2198 / ratetol=1.0 / qcomp=0.60 / qpmin=0 / qpmax=69 / qpstep=4 / cplxblur=20.0 / qblur=0.5 / ip_ratio=1.40 / aq=1:1.00
Язык : English
Default : Да
Forced : Нет

Аудио #1
Идентификатор : 2
Формат : AC-3
Формат/Информация : Audio Coding 3
Расширение режима : CM (complete main)
Параметр Endianness формата : Big
Идентификатор кодека : A_AC3
Продолжительность : 1 ч. 52 м.
Вид битрейта : Постоянный
Битрейт : 192 Кбит/сек
Каналы : 2 канала
Расположение каналов : Front: L R
Частота : 48,0 КГц
Битовая глубина : 16 бит
Метод сжатия : С потерями
Размер потока : 155 Мбайт (7%)
Заголовок : Источник HDTV Dolby Digital 2,0 192 kbps Дубляж
Язык : Russian
Default : Да
Forced : Нет

Аудио #2
Идентификатор : 3
Формат : AC-3
Формат/Информация : Audio Coding 3
Расширение режима : CM (complete main)
Параметр Endianness формата : Big
Идентификатор кодека : A_AC3
Продолжительность : 1 ч. 52 м.
Вид битрейта : Постоянный
Битрейт : 384 Кбит/сек
Каналы : 6 каналов
Расположение каналов : Front: L C R, Side: L R, LFE
Частота : 48,0 КГц
Битовая глубина : 16 бит
Метод сжатия : С потерями
Размер потока : 310 Мбайт (14%)
Заголовок : Источник HDTV Dolby Digital 5,1 384kb
Язык : English
Default : Нет
Forced : Нет

Текст #1
Идентификатор : 4
Формат : UTF-8
Идентификатор кодека : S_TEXT/UTF8
Идентификатор кодека/Информация : UTF-8 Plain Text
Заголовок : Источник DVD SoftSub (srt)
Язык : Russian
Default : Нет
Forced : Нет

Текст #2
Идентификатор : 5
Формат : UTF-8
Идентификатор кодека : S_TEXT/UTF8
Идентификатор кодека/Информация : UTF-8 Plain Text
Заголовок : Источник DVD SoftSub (srt)
Язык : English
Default : Нет
Forced : Нет

Меню
00:00:00.000 : en:00:00:00.000
00:00:10.230 : en:00:00:10.230
00:04:58.230 : en:00:04:58.230
00:14:00.180 : en:00:14:00.180
00:19:30.030 : en:00:19:30.030
00:26:25.050 : en:00:26:25.050
00:40:12.130 : en:00:40:12.130
00:48:38.190 : en:00:48:38.190
00:56:29.020 : en:00:56:29.020
00:59:18.070 : en:00:59:18.070
01:06:02.170 : en:01:06:02.170
01:09:55.140 : en:01:09:55.140
01:12:57.070 : en:01:12:57.070
01:21:55.120 : en:01:21:55.120
01:32:04.080 : en:01:32:04.080
01:46:19.080 : en:01:46:19.080
01:48:48.030 : en:01:48:48.030



Скачать Городская.полиция.Metro.(Томас.Картер).[1997.боевик.триллер.драма.комедия.криминал.HDTVRip-AVC].[Dub]+[Оригинал]+[Sub]x2.torrent без регистрации
Золото ЗОЛОТАЯ РАЗДАЧА! СКАЧАННОЕ НЕ ЗАСЧИТЫВАЕТСЯ! Золото
Дата: Зарегистрирован   [ Тип: внешний ] Как тут cкачать?
MAGNET ссылка
MAGNET ссылка


Скачать .torrent

12 KB

Статус: проверено DHT
Скачан: торрент - 109 раз, раздача полностью - 14 раз
Размер: 2,19 GB
Оценка:  - (Голосов: 0)
Поблагодарили: 1
Поделиться ссылкой на эту раздачу с друзьями:
В контактеFacebookОдноклассникиTwitterLivejournalМой МирLiveinternet
 

 
Показать сообщения:    


Вы не можете начинать темы
Вы не можете отвечать на сообщения
Вы не можете редактировать свои сообщения
Вы не можете удалять свои сообщения
Вы не можете голосовать в опросах
Вы не можете прикреплять файлы к сообщениям
Вы можете скачивать файлы