Loading...
Error

Скачать Городская полиция / Metro (Томас Картер) [1997, боевик, триллер, драма, комедия, криминал, HDTVRip] [Dub] торрент без регистрации

 
Статистика раздачи
Размер:  745 MB   |    Скачан:  117 раз
Сидов:  1  [  0 KB/s  ]  
 
Автор Сообщение

Marsianka

[] 

Страна: США
Производство: Caravan Pictures, Roger Birnbaum Productions, Touchstone Pictures
Жанр: боевик, триллер, драма, комедия, криминал
Год выпуска: 1997
Продолжительность: 01:52:44

Перевод: Профессиональный (полное дублирование)
Оригинальная аудиодорожка: нет
Cубтитры: нет

Режиссер: Томас Картер / Thomas Carter

В ролях:
Эдди Мёрфи / Eddie Murphy, Ким Мийори / Kim Miyori, Арт Эванс / Art Evans, Джеймс Карпентер / James Carpenter, Майкл Рапапорт / Michael Rapaport, Донал Лог / Donal Logue, Джени Чуа / Jeni Chua, Майкл Уинкотт / Michael Wincott, Кармен Эджого / Carmen Ejogo...

Роли дублировали:
Вадим Гущин, Анатолий Петров, Олег Куликович, Мария Мушкатина, Валерий Никитенко...

Описание:
Эдди Мэрфи играет роль полицейского, остроумного, крутого. Его зовут Скотт Роупер, и он лучший специалист по переговорам с преступниками, захватывающими заложников. Сюжет строится на его противостоянии с похитителем драгоценностей Майклом Корда, убившим его партнера и лучшего друга. Роупер сумел поймать его, но Корда бежит из тюрьмы, берет в заложницы любимую девушку Скотта по имени Ронни. После этого рассвирепевший Роупер и отданный ему в ученики спецназовец и великолепный снайпер Кевин МакКолл вдвоем выручают девушку из рук умного психопата…

Исходник: HDTV 1080i
Тип релиза: HDTVRip
Контейнер: AVI

Видео: 624x352 (16:9), 25,000 fps, XviD ~ 786 kbps avg, 0.143 bit/pixel
Аудио: 48 kHz, MP3 2.0, 128 kbps

Раздача от:

Общее
Полное имя : Gorodskaya.policiya.1997.HDTVRip-745_[New-team]_by_AVP_Studio.avi
Формат : AVI
Формат/Информация : Audio Video Interleave
Размер файла : 745 Мбайт
Продолжительность : 1 ч. 52 м.
Общий поток : 924 Кбит/сек
Программа кодирования : VirtualDubModRus 1.5.10.2 (build 2542/release)
Библиотека кодирования : VirtualDubMod build 2542/release

Видео
Идентификатор : 0
Формат : MPEG-4 Visual
Профиль формата : Advanced Simple@L5
Параметр BVOP формата : 1
Параметр QPel формата : Нет
Параметр GMC формата : Без точки перехода
Параметр матрицы формата : Выборочная
Идентификатор кодека : XVID
Идентификатор кодека/Подсказка : XviD
Продолжительность : 1 ч. 52 м.
Битрейт : 786 Кбит/сек
Ширина : 624 пикселя
Высота : 352 пикселя
Соотношение сторон : 16:9
Частота кадров : 25,000 кадров/сек
Цветовое пространство : YUV
Субдискретизация насыщенности : 4:2:0
Битовая глубина : 8 бит
Тип развёртки : Прогрессивная
Метод сжатия : С потерями
Бит/(Пиксели*Кадры) : 0.143
Размер потока : 634 Мбайт (85%)
Библиотека кодирования : XviD 73

Аудио
Идентификатор : 1
Формат : MPEG Audio
Версия формата : Version 1
Профиль формата : Layer 3
Идентификатор кодека : 55
Идентификатор кодека/Подсказка : MP3
Продолжительность : 1 ч. 52 м.
Вид битрейта : Постоянный
Битрейт : 128 Кбит/сек
Каналы : 2 канала
Частота : 48,0 КГц
Метод сжатия : С потерями
Размер потока : 103 Мбайт (14%)
Выравнивание : Соединение по промежуткам
Продолжительность промежутка : 40 мс. (1,00 видеокадр)
Время предзагрузки промежутка : 504 мс.
Библиотека кодирования : LAME3.99r
Настройки программы : -m s -V 4 -q 2 -lowpass 17 -b 128



Скачать Городская.полиция.Metro.(Томас.Картер).[1997.боевик.триллер.драма.комедия.криминал.HDTVRip].[Dub].torrent без регистрации
Золото ЗОЛОТАЯ РАЗДАЧА! СКАЧАННОЕ НЕ ЗАСЧИТЫВАЕТСЯ! Золото
Дата: Зарегистрирован   [ Тип: внутренний ] Как тут cкачать?
MAGNET ссылка
MAGNET ссылка


Скачать .torrent

15 KB

Статус: проверено DHT
Скачан: торрент - 117 раз, раздача полностью - 12 раз
Размер: 745 MB
Оценка:  5 (Голосов: 1)
Поблагодарили: 1
Поделиться ссылкой на эту раздачу с друзьями:
В контактеFacebookОдноклассникиTwitterLivejournalМой МирLiveinternet
 

 
Показать сообщения:    


Вы не можете начинать темы
Вы не можете отвечать на сообщения
Вы не можете редактировать свои сообщения
Вы не можете удалять свои сообщения
Вы не можете голосовать в опросах
Вы не можете прикреплять файлы к сообщениям
Вы можете скачивать файлы