Loading...
Error

Скачать Зеркало (Андрей Тарковский) [1974, драма, биография, история, BDRip] [720p] торрент без регистрации

Статистика раздачи
Размер:  3,97 GB   |    Скачан:  245 раз
Сидов:  1  [  0 KB/s  ]  
 
 
 
Автор Сообщение

МихаНЕзатор

[] 

Зеркало (1974) BDRip 720p | O


Название: Зеркало
Оригинальное название: Зеркало
Год выхода: 1974
Жанр: драма, биография, история
Режиссер: Андрей Тарковский
В ролях: Маргарита Терехова, Олег Янковский, Иннокентий Смоктуновский, Филипп Янковский, Игнат Данильцев, Николай Гринько, Алла Демидова, Юрий Назаров, Анатолий Солоницын, Лариса Тарковская

О фильме:
Герой картины мучительно боится потерять любовь и понимание близких людей: матери, любимой женщины, сына. И чувствует, что жизнь с каждым днем все дальше уводит их друг от друга. Пытаясь сохранить семью, он обращается памятью к самым сильным впечатлениям своего детства, стараясь в том, детском, мировосприятии найти опору и оправдание своим сегодняшним переживаниям.




Страна: СССР
Студия: Мосфильм

Продолжительность: 01:47:20
Перевод: не требуется

Файл
Кодек: H.264
Качество: BDRip [720p]
Видео: 1032x720 (1.433) at 23.976 fps, AVC at 4700 kbps
Звук:
1: АС3 5.1 448 kbps - Русский
Субтитры: отсутствуют


АНОНСЫ ПОПУЛЯРНЫХ РАЗДАЧ

General
Unique ID : 188848784080341116734100584793218348207 (0x8E12F3EC26EF06AC98D1F7ECEBCDF4AF)
Complete name : I:modoutMIRROR.1974.720p.O.mkv
Format : Matroska
Format version : Version 4 / Version 2
File size : 3.97 GiB
Duration : 1h 47mn
Overall bit rate : 5 295 Kbps
Movie name : MIRROR.1974
Encoded date : UTC 2014-06-05 15:53:22
Writing application : mkvmerge v6.9.1 ('Blue Panther') 32bit built on Apr 18 2014 18:15:44
Writing library : libebml v1.3.0 + libmatroska v1.4.1
Attachment : Yes

Video
ID : 1
Format : AVC
Format/Info : Advanced Video Codec
Format profile : High@L4.1
Format settings, CABAC : Yes
Format settings, ReFrames : 9 frames
Codec ID : V_MPEG4/ISO/AVC
Duration : 1h 47mn
Bit rate : 4 742 Kbps
Width : 1 032 pixels
Height : 720 pixels
Display aspect ratio : 1.433
Frame rate mode : Constant
Frame rate : 23.976 fps
Color space : YUV
Chroma subsampling : 4:2:0
Bit depth : 8 bits
Scan type : Progressive
Bits/(Pixel*Frame) : 0.266
Stream size : 3.55 GiB (90%)
Title : MIRROR.1974
Language : Russian
Default : Yes
Forced : No

Audio
ID : 2
Format : AC-3
Format/Info : Audio Coding 3
Mode extension : CM (complete main)
Format settings, Endianness : Big
Codec ID : A_AC3
Duration : 1h 47mn
Bit rate mode : Constant
Bit rate : 448 Kbps
Channel(s) : 6 channels
Channel positions : Front: L C R, Side: L R, LFE
Sampling rate : 48.0 KHz
Bit depth : 16 bits
Compression mode : Lossy
Stream size : 344 MiB (8%)
Title : Original
Language : Russian
Default : Yes
Forced : No

Menu
00:00:00.000 : en:00:00:00.000
00:05:58.358 : en:00:05:58.358
00:14:09.849 : en:00:14:09.849
00:22:30.349 : en:00:22:30.349
00:29:17.756 : en:00:29:17.756
00:34:47.085 : en:00:34:47.085
00:41:35.493 : en:00:41:35.493
00:52:09.126 : en:00:52:09.126
00:59:38.575 : en:00:59:38.575
01:06:23.980 : en:01:06:23.980
01:16:17.573 : en:01:16:17.573
01:20:41.837 : en:01:20:41.837
01:32:48.563 : en:01:32:48.563
01:41:03.057 : en:01:41:03.057

x264 [info]: frame I:687 Avg QP:15.57 size:119712
x264 [info]: frame P:31306 Avg QP:17.31 size: 57965
x264 [info]: frame B:122008 Avg QP:19.34 size: 16419
x264 [info]: consecutive B-frames: 1.2% 1.6% 7.4% 12.1% 15.6% 55.0% 5.5% 0.8% 0.5% 0.2% 0.0% 0.0% 0.0%
x264 [info]: mb I I16..4: 28.4% 50.0% 21.6%
x264 [info]: mb P I16..4: 2.1% 11.9% 1.7% P16..4: 24.1% 37.4% 17.0% 5.1% 0.4% skip: 0.3%
x264 [info]: mb B I16..4: 0.1% 1.5% 0.1% B16..8: 35.7% 19.8% 4.2% direct: 8.5% skip:30.2% L0:37.9% L1:46.9% BI:15.2%
x264 [info]: 8x8 transform intra:77.5% inter:39.8%
x264 [info]: coded y,uvDC,uvAC intra: 99.2% 29.8% 18.6% inter: 37.7% 8.4% 3.7%
x264 [info]: i16 v,h,dc,p: 3% 1% 33% 63%
x264 [info]: i8 v,h,dc,ddl,ddr,vr,hd,vl,hu: 10% 10% 13% 9% 12% 11% 12% 11% 12%
x264 [info]: i4 v,h,dc,ddl,ddr,vr,hd,vl,hu: 7% 9% 5% 10% 15% 14% 14% 12% 13%
x264 [info]: i8c dc,h,v,p: 45% 41% 9% 6%
x264 [info]: Weighted P-Frames: Y:11.4% UV:2.0%
x264 [info]: ref P L0: 51.2% 11.1% 13.3% 6.9% 5.3% 4.2% 3.5% 2.2% 2.0% 0.2% 0.0%
x264 [info]: ref B L0: 92.8% 3.1% 1.6% 0.8% 0.6% 0.5% 0.4% 0.2%
x264 [info]: ref B L1: 97.5% 2.5%
x264 [info]: kb/s:4747.58




Скачать Зеркало.(Андрей.Тарковский).[1974.драма.биография.история.BDRip].[720p].torrent без регистрации
Золото ЗОЛОТАЯ РАЗДАЧА! СКАЧАННОЕ НЕ ЗАСЧИТЫВАЕТСЯ! Золото
Дата: Зарегистрирован   [ Тип: внутренний ] Как тут cкачать?
MAGNET ссылка
MAGNET ссылка


Скачать .torrent

20 KB

Статус: проверено DHT
Скачан: торрент - 245 раз, раздача полностью - 89 раз
Размер: 3,97 GB
Оценка:  - (Голосов: 0)
Поблагодарили: 5
Поделиться ссылкой на эту раздачу с друзьями:
В контактеFacebookОдноклассникиTwitterLivejournalМой МирLiveinternet
 

 
Показать сообщения:    


Вы не можете начинать темы
Вы не можете отвечать на сообщения
Вы не можете редактировать свои сообщения
Вы не можете удалять свои сообщения
Вы не можете голосовать в опросах
Вы не можете прикреплять файлы к сообщениям
Вы можете скачивать файлы