Loading...
Error

Скачать Кара / Плеть / Scourge (Джонас Куастел) [2008, ужасы, фантастика, детектив, DVDRip] [MVO] торрент без регистрации

 
Статистика раздачи
Размер:  1,36 GB   |    Скачан:  114 раз
Сидов:  1  [  0 KB/s  ]  
 
Автор Сообщение

Marsianka

[] 

Информация о фильме
Название: Кара / Плеть
Оригинальное название: Scourge
Год выхода: 2008
Жанр: ужасы, фантастика, детектив
Режиссер: Джонас Куастел
В ролях: Расселл Феррье, Робин Ледоукс, Ник Ринд, Джейсон Хардер, Алан ЛеГрос, Марина Паскуа, Шарон Бертшилд, Паул Вигано, Русс Болл

О фильме:
Древнее зло в течении полутора столетий было заточено в заброшенной церкви. Но благодаря стечению обстоятельств оно вырвалось на свободу. Теперь между жителями маленького городка и монстром, жаждущим свежей крови, стоят лишь Скотт и Джесси. Молодые люди пытаются остановить истребление жителей и в трудные минуты находят поддержку в своих вновь вспыхнувших друг к другу чувствах.




Страна: США, Канада
Студия: PHD Productions
Продолжительность: 01:30:00
Перевод: Профессиональный многоголосый

Файл
Кодек: XviD
Качество: DVDRip
Видео: 704x384, 1713 kbps, 23,976 fps, 0.264 Bits/(Pixel*Frame)
Звук: AC3, 48 kHz, 448 kbps, 6 ch
Субтитры: Нет
General
Complete name : F:Plet.2008.DVDRip.avi
Format : AVI
Format/Info : Audio Video Interleave
File size : 1.36 GiB
Duration : 1h 29mn
Overall bit rate : 2 170 Kbps
Writing application : VirtualDubMod 1.5.10.2 (build 2540/release)
Writing library : VirtualDubMod build 2540/release

Video
ID : 0
Format : MPEG-4 Visual
Format profile : Advanced Simple@L5
Format settings, BVOP : 2
Format settings, QPel : No
Format settings, GMC : No warppoints
Format settings, Matrix : Default (MPEG)
Muxing mode : Packed bitstream
Codec ID : XVID
Codec ID/Hint : XviD
Duration : 1h 29mn
Bit rate : 1 713 Kbps
Width : 704 pixels
Height : 384 pixels
Display aspect ratio : 1.85:1
Frame rate : 23.976 fps
Color space : YUV
Chroma subsampling : 4:2:0
Bit depth : 8 bits
Scan type : Progressive
Compression mode : Lossy
Bits/(Pixel*Frame) : 0.264
Stream size : 1.08 GiB (79%)
Writing library : XviD 1.2.0.dev47 (UTC 2006-11-01)

Audio
ID : 1
Format : AC-3
Format/Info : Audio Coding 3
Mode extension : CM (complete main)
Format settings, Endianness : Big
Codec ID : 2000
Duration : 1h 29mn
Bit rate mode : Constant
Bit rate : 448 Kbps
Channel(s) : 6 channels
Channel positions : Front: L C R, Side: L R, LFE
Sampling rate : 48.0 KHz
Bit depth : 16 bits
Compression mode : Lossy
Stream size : 288 MiB (21%)
Alignment : Split accross interleaves
Interleave, duration : 42 ms (1.00 video frame)
Interleave, preload duration : 500 ms



Скачать Кара.Плеть.Scourge.(Джонас.Куастел).[2008.ужасы.фантастика.детектив.DVDRip].[MVO].torrent без регистрации
Золото ЗОЛОТАЯ РАЗДАЧА! СКАЧАННОЕ НЕ ЗАСЧИТЫВАЕТСЯ! Золото
Дата: Зарегистрирован   [ Тип: внутренний ] Как тут cкачать?
MAGNET ссылка
MAGNET ссылка


Скачать .torrent

14 KB

Статус: проверено DHT
Скачан: торрент - 114 раз, раздача полностью - 30 раз
Размер: 1,36 GB
Оценка:  5 (Голосов: 1)
Поблагодарили: 2
Поделиться ссылкой на эту раздачу с друзьями:
В контактеFacebookОдноклассникиTwitterLivejournalМой МирLiveinternet
 

 
Показать сообщения:    


Вы не можете начинать темы
Вы не можете отвечать на сообщения
Вы не можете редактировать свои сообщения
Вы не можете удалять свои сообщения
Вы не можете голосовать в опросах
Вы не можете прикреплять файлы к сообщениям
Вы можете скачивать файлы