Loading...
Error

Скачать Северная страна / North Country (Ники Каро) [2005, драма, HDTVRip-AVC] [MVO]+[DVO]x2+[Sub]x2 торрент без регистрации

 
Статистика раздачи
Размер:  2,75 GB   |    Скачан:  130 раз
Сидов:  1  [  0 KB/s  ]  
 
Автор Сообщение

Marsianka

[] 

Информация о фильме
Название: Северная страна
Оригинальное название: North Country
Год выпуска: 2005
Жанр: драма
Режиссер: Ники Каро
В ролях: Шарлиз Терон, Элль Петерсон, Томас Кертис, Фрэнсис МакДорманд, Шон Бин, Вуди Харрельсон, Сисси Спейсек, Мишель Монахэн

О фильме: После того, как распался ее брак, Джози Эймс в поисках работы возвращается в свой родной город в Северной Миннесоте. У нее двое детей, и чтобы обеспечить их, она вынуждена устроиться на шахту, где трудятся практически все местные мужчины, в том числе и ее отец.



Страна: США
Студия: Warner Brothers
Продолжительность: 02:01:06
Перевод: Профессиональный многоголосый, профессиональный двухголосый, любительский двухголосый

Файл
Кодек: x264
Качество: HDTVRip(AVC)
Видео: MPEG-4 AVC, 1590 Кбит/с, 1024x422, 25.000 кадр/с

Семпл
Аудио #1: Русский (AC3, 6 ch, 384 Кбит/с) / Профессиональный многоголосый (Нева-Фильм)
Аудио #2: Русский (AC3, 6 ch, 448 Кбит/с) / Профессиональный двухголосый (Тycoon)
Аудио #3: Русский (AC3, 6 ch, 448 Кбит/с) / Любительский двухголосый (Interfilm)
Аудио #2: Английский (AC3, 6 ch, 384 Кбит/с)
Субтитры: Русские, английские
За предоставленный постер и аудио дорожки #2 и #3 низкий поклон elcinboris
x264 [info]: frame I:1608 Avg QP:15.13 size: 64541
x264 [info]: frame P:55306 Avg QP:18.97 size: 16846
x264 [info]: frame B:124736 Avg QP:22.66 size: 3273

=================================

Уникальный идентификатор : 194889962427208448434968164653723006824 (0x929E7102DC6ED525984B943F24C7B768)
Полное имя : E:MCSevernaja.strana.2005.x264.HDTVRip(AVC)-MediaClubSevernaja.strana.2005.x264.HDTVRip(AVC)-MediaClub.mkv
Формат : Matroska
Версия формата : Version 4 / Version 2
Размер файла : 2,75 Гбайт
Продолжительность : 2 ч. 1 м.
Общий поток : 3255 Кбит/сек
Название фильма : -= Release MediaClub =-
Дата кодирования : UTC 2014-06-04 18:37:37
Программа кодирования : mkvmerge v6.4.1 ('Omega Point') built on Sep 16 2013 22:05:10
Библиотека кодирования : libebml v1.3.0 + libmatroska v1.4.1

Видео
Идентификатор : 1
Формат : AVC
Формат/Информация : Advanced Video Codec
Профиль формата : High@L4.1
Параметр CABAC формата : Да
Параметр ReFrames формата : 10 кадров
Идентификатор кодека : V_MPEG4/ISO/AVC
Продолжительность : 2 ч. 1 м.
Битрейт : 1590 Кбит/сек
Ширина : 1024 пикселя
Высота : 422 пикселя
Соотношение сторон : 2,40:1
Режим частоты кадров : Постоянный
Частота кадров : 25,000 кадров/сек
Цветовое пространство : YUV
Субдискретизация насыщенности : 4:2:0
Битовая глубина : 8 бит
Тип развёртки : Прогрессивная
Бит/(Пиксели*Кадры) : 0.147
Размер потока : 1,29 Гбайт (47%)
Заголовок : Severnaja.strana.2005.x264.HDTVRip(AVC)-neni
Библиотека кодирования : x264 core 142 r2409+42 04be48a tMod [8-bit@4:2:0 X86_64]
Настройки программы : cabac=1 / ref=10 / deblock=1:-3:-3 / analyse=0x3:0x133 / me=tesa / subme=11 / psy=1 / fade_compensate=0.00 / psy_rd=1.00:0.25 / mixed_ref=1 / me_range=48 / chroma_me=1 / trellis=2 / 8x8dct=1 / cqm=0 / deadzone=21,11 / fast_pskip=1 / chroma_qp_offset=-4 / threads=9 / lookahead_threads=1 / sliced_threads=0 / nr=0 / decimate=0 / interlaced=0 / bluray_compat=0 / constrained_intra=0 / fgo=0 / bframes=8 / b_pyramid=2 / b_adapt=2 / b_bias=0 / direct=3 / weightb=1 / open_gop=0 / weightp=2 / keyint=250 / keyint_min=25 / scenecut=40 / intra_refresh=0 / rc_lookahead=40 / rc=2pass / mbtree=1 / bitrate=1590 / ratetol=1.0 / qcomp=0.60 / qpmin=0:0:0 / qpmax=69:69:69 / qpstep=4 / cplxblur=20.0 / qblur=0.5 / ip_ratio=1.40 / aq=2:1.00 / aq-sensitivity=10.00 / aq-factor=1.00:1.00:1.00 / aq2=0 / aq3=0
Язык : English
Default : Да
Forced : Да

Аудио #1
Идентификатор : 2
Формат : AC-3
Формат/Информация : Audio Coding 3
Расширение режима : CM (complete main)
Параметр Endianness формата : Big
Идентификатор кодека : A_AC3
Продолжительность : 2 ч. 1 м.
Вид битрейта : Постоянный
Битрейт : 384 Кбит/сек
Каналы : 6 каналов
Расположение каналов : Front: L C R, Side: L R, LFE
Частота : 48,0 КГц
Битовая глубина : 16 бит
Метод сжатия : С потерями
Размер потока : 333 Мбайт (12%)
Заголовок : MVO
Язык : Russian
Default : Да
Forced : Нет

Аудио #2
Идентификатор : 3
Формат : AC-3
Формат/Информация : Audio Coding 3
Расширение режима : CM (complete main)
Параметр Endianness формата : Big
Идентификатор кодека : A_AC3
Продолжительность : 2 ч. 1 м.
Вид битрейта : Постоянный
Битрейт : 448 Кбит/сек
Каналы : 6 каналов
Расположение каналов : Front: L C R, Side: L R, LFE
Частота : 48,0 КГц
Битовая глубина : 16 бит
Метод сжатия : С потерями
Размер потока : 388 Мбайт (14%)
Заголовок : P2 (tycoon)
Язык : Russian
Default : Нет
Forced : Нет

Аудио #3
Идентификатор : 4
Формат : AC-3
Формат/Информация : Audio Coding 3
Расширение режима : CM (complete main)
Параметр Endianness формата : Big
Идентификатор кодека : A_AC3
Продолжительность : 2 ч. 1 м.
Вид битрейта : Постоянный
Битрейт : 448 Кбит/сек
Каналы : 6 каналов
Расположение каналов : Front: L C R, Side: L R, LFE
Частота : 48,0 КГц
Битовая глубина : 16 бит
Метод сжатия : С потерями
Размер потока : 388 Мбайт (14%)
Заголовок : L2 (Interfilm)
Язык : Russian
Default : Нет
Forced : Нет

Аудио #4
Идентификатор : 5
Формат : AC-3
Формат/Информация : Audio Coding 3
Расширение режима : CM (complete main)
Параметр Endianness формата : Big
Идентификатор кодека : A_AC3
Продолжительность : 2 ч. 1 м.
Вид битрейта : Постоянный
Битрейт : 384 Кбит/сек
Каналы : 6 каналов
Расположение каналов : Front: L C R, Side: L R, LFE
Частота : 48,0 КГц
Битовая глубина : 16 бит
Метод сжатия : С потерями
Размер потока : 333 Мбайт (12%)
Заголовок : English
Язык : English
Default : Нет
Forced : Нет

Текст #1
Идентификатор : 6
Формат : UTF-8
Идентификатор кодека : S_TEXT/UTF8
Идентификатор кодека/Информация : UTF-8 Plain Text
Заголовок : Russian
Язык : Russian
Default : Нет
Forced : Нет

Текст #2
Идентификатор : 7
Формат : UTF-8
Идентификатор кодека : S_TEXT/UTF8
Идентификатор кодека/Информация : UTF-8 Plain Text
Заголовок : English
Язык : English
Default : Нет
Forced : Нет

Меню
00:00:00.000 : en:Not Coming Back
00:03:02.000 : en:Disappointments
00:07:08.000 : en:Job at the Mine
00:12:42.000 : en:Where They're Not Wanted
00:16:00.000 : en:On the Job
00:19:52.000 : en:Pranks and Putdowns
00:24:34.000 : en:Take it Like a Man
00:31:05.000 : en:A Night Out
00:37:59.000 : en:Conveyer 4
00:44:45.000 : en:A Few Differences
00:47:19.000 : en:Hockey Game Slander
00:53:39.000 : en:Where's Our Respect?
00:56:54.000 : en:Meeting With Person
01:01:59.000 : en:Like a Bull-Headed Teenager
01:06:29.000 : en:Learn the Rules
01:09:26.000 : en:Deaf Ears
01:12:27.200 : en:I Want a Lawyer
01:17:24.000 : en:Other Plaintiffs Needed
01:22:05.000 : en:A Mother Rebels
01:26:48.000 : en:Union Meeting
01:33:02.000 : en:Covered in Soot
01:34:44.000 : en:Student/Teacher Relationship
01:39:56.000 : en:A Lot of Work to Hate
01:44:01.000 : en:You Were Mine
01:47:08.000 : en:Yellow-Ice Witness
01:50:54.000 : en:I Stand With Josey
01:53:16.000 : en:Behind the Wheel
01:54:51.000 : en:Coda, Dedication and End Credits
Релиз от: Rip by



Скачать Северная.страна.North.Country.(Ники.Каро).[2005.драма.HDTVRip-AVC].[MVO]+[DVO]x2+[Sub]x2.torrent без регистрации
Золото ЗОЛОТАЯ РАЗДАЧА! СКАЧАННОЕ НЕ ЗАСЧИТЫВАЕТСЯ! Золото
Дата: Зарегистрирован   [ Тип: внутренний ] Как тут cкачать?
MAGNET ссылка
MAGNET ссылка


Скачать .torrent

14 KB

Статус: проверено DHT
Скачан: торрент - 130 раз, раздача полностью - 13 раз
Размер: 2,75 GB
Оценка:  - (Голосов: 0)
Поблагодарили: 2
Поделиться ссылкой на эту раздачу с друзьями:
В контактеFacebookОдноклассникиTwitterLivejournalМой МирLiveinternet
 

 
Показать сообщения:    


Вы не можете начинать темы
Вы не можете отвечать на сообщения
Вы не можете редактировать свои сообщения
Вы не можете удалять свои сообщения
Вы не можете голосовать в опросах
Вы не можете прикреплять файлы к сообщениям
Вы можете скачивать файлы