Loading...
Error

Скачать Рэмбо: Первая кровь / First Blood (Тед Котчефф) [1982, боевик, триллер, криминал, BDRip-AVC] [MVO]+[Оригинал] торрент без регистрации

 
Статистика раздачи
Размер:  1,46 GB   |    Скачан:  165 раз
Сидов:  47  [  0 KB/s  ]   Личеров:  1  [  0 KB/s  ]  
 
Автор Сообщение

Marsianka

[] 

«Война одного человека»

Страна: США
Производство: Anabasis N.V., Elcajo Productions
Жанр: боевик, триллер, криминал
Год выпуска: 1982
Продолжительность: 01:33:16

Перевод: Профессиональный (многоголосый закадровый) (Киномания)
Оригинальная аудиодорожка: английский


Режиссер: Тед Котчефф / Ted Kotcheff

В ролях:
Сильвестр Сталлоне, Ричард Кренна, Брайан Деннехи, Билл МакКинни, Джек Старретт, Майкл Толбот, Крис Малки, Джон МакЛиам, Альф Хамфриз, Дэвид Карузо...

Описание:
Он — эксперт. Эксперт по оружию, ножам и собственному телу. Он человек, специально обученный не замечать боль и погодные условия.
Во Вьетнаме его задание было уничтожать вражеский личный состав. Много убивать. Истощать силы врага до полной победы. Рэмбо был лучший. На войне он был героем, а на родине, во имя которой проливалась кровь, он никому не нужен.
Не способный приспособиться к мирной жизни Рэмбо путешествует автостопом по городам Америки, встречаясь с однополчанами. Путешествие прекращает провинциальный шериф, ненавидящий бродяг.
Попавший в тюрьму по ложному обвинению, вкусивший унижений со стороны администрации, Рэмбо объявляет войну. Войну существующему отношению к ветеранам, беспределу официальных структур и главе местной полиции лично. Совершив фантастический побег из тюрьмы, Джон начинает партизанскую войну в местных лесах. Очень скоро ситуация выходит из под контроля властей и в маленький город вводят части регулярной армии. Бывший боевой командир Джона Рэмбо смог дать лишь один комментарий: «Раз ты привел сюда так много людей, то приготовь побольше мешков для трупов».

Исходник: BDRemux 1080p
Тип релиза: BDRip-AVC
Контейнер: MKV

Видео: 1024x434 (2,35:1), 23,976 fps, H264 ~ 1401 kbps avg, 0.131 bit/pixel
Аудио: 48 kHz, Dolby Digital AC3 5.1, 384 kbps MVO Киномания
Аудио: 48 kHz, Dolby Digital AC3 5.1, 448 kbps Английский
Оригинальная навигация по главам: есть
Раздача от:

Общее
Полное имя : Rembo.Pervaya.krov.1982.BDRip-AVC_[New-team]_by_AVP_Studio.mkv
Формат : Matroska
Версия формата : Version 4 / Version 2
Размер файла : 1,46 Гбайт
Продолжительность : 1 ч. 33 м.
Общий поток : 2235 Кбит/сек
Название фильма : Rembo.Pervaya.krov.1982.BDRip-AVC_[New-team]_by_AVP_Studio
Дата кодирования : UTC 2014-01-09 09:00:37
Программа кодирования : mkvmerge v6.6.0 ('The Edge Of The In Between') built on Dec 1 2013 17:55:00
Библиотека кодирования : libebml v1.3.0 + libmatroska v1.4.1

Видео
Идентификатор : 1
Формат : AVC
Формат/Информация : Advanced Video Codec
Профиль формата : High@L4.1
Параметр CABAC формата : Да
Параметр ReFrames формата : 8 кадров
Идентификатор кодека : V_MPEG4/ISO/AVC
Продолжительность : 1 ч. 33 м.
Битрейт : 1401 Кбит/сек
Ширина : 1024 пикселя
Высота : 434 пикселя
Соотношение сторон : 2,35:1
Частота кадров : 23,976 кадра/сек
Цветовое пространство : YUV
Субдискретизация насыщенности : 4:2:0
Битовая глубина : 8 бит
Тип развёртки : Прогрессивная
Бит/(Пиксели*Кадры) : 0.131
Размер потока : 906 Мбайт (61%)
Заголовок : Источник BDRemux
Библиотека кодирования : x264 core 138 r2356 a1d3d17
Настройки программы : cabac=1 / ref=8 / deblock=1:-3:-2 / analyse=0x3:0x113 / me=umh / subme=10 / psy=1 / psy_rd=1.00:0.05 / mixed_ref=1 / me_range=32 / chroma_me=1 / trellis=2 / 8x8dct=1 / cqm=0 / deadzone=21,11 / fast_pskip=0 / chroma_qp_offset=-3 / threads=3 / lookahead_threads=1 / sliced_threads=0 / nr=0 / decimate=0 / interlaced=0 / bluray_compat=0 / constrained_intra=0 / bframes=8 / b_pyramid=2 / b_adapt=2 / b_bias=0 / direct=3 / weightb=1 / open_gop=0 / weightp=2 / keyint=240 / keyint_min=24 / scenecut=40 / intra_refresh=0 / rc_lookahead=40 / rc=2pass / mbtree=1 / bitrate=1401 / ratetol=1.0 / qcomp=0.60 / qpmin=0 / qpmax=69 / qpstep=4 / cplxblur=20.0 / qblur=0.5 / ip_ratio=1.40 / aq=1:1.00
Язык : English
Default : Да
Forced : Нет

Аудио #1
Идентификатор : 2
Формат : AC-3
Формат/Информация : Audio Coding 3
Расширение режима : CM (complete main)
Идентификатор кодека : A_AC3
Продолжительность : 1 ч. 33 м.
Вид битрейта : Постоянный
Битрейт : 384 Кбит/сек
Каналы : 6 каналов
Расположение каналов : Front: L C R, Side: L R, LFE
Частота : 48,0 КГц
Битовая глубина : 16 бит
Метод сжатия : С потерями
Размер потока : 256 Мбайт (17%)
Заголовок : Источник BDRemux Dolby Digital 5,1 384kb
Язык : Russian
Default : Да
Forced : Нет

Аудио #2
Идентификатор : 3
Формат : AC-3
Формат/Информация : Audio Coding 3
Расширение режима : CM (complete main)
Идентификатор кодека : A_AC3
Продолжительность : 1 ч. 33 м.
Вид битрейта : Постоянный
Битрейт : 448 Кбит/сек
Каналы : 6 каналов
Расположение каналов : Front: L C R, Side: L R, LFE
Частота : 48,0 КГц
Битовая глубина : 16 бит
Метод сжатия : С потерями
Размер потока : 299 Мбайт (20%)
Заголовок : Источник BDRemux Dolby Digital 5,1 448kb
Язык : English
Default : Нет
Forced : Нет

Меню
00:00:00.000 : en:00:00:00.000
00:04:59.674 : en:00:04:59.674
00:09:53.843 : en:00:09:53.843
00:17:36.555 : en:00:17:36.555
00:23:19.481 : en:00:23:19.481
00:30:46.428 : en:00:30:46.428
00:36:53.920 : en:00:36:53.920
00:42:11.946 : en:00:42:11.946
00:48:37.540 : en:00:48:37.540
00:53:55.274 : en:00:53:55.274
01:00:01.431 : en:01:00:01.431
01:08:01.744 : en:01:08:01.744
01:13:48.007 : en:01:13:48.007
01:17:42.366 : en:01:17:42.366
01:22:46.545 : en:01:22:46.545
01:29:44.337 : en:01:29:44.337

«Рэмбо» — сорт французских яблок, что был привезен в Америку иммигрантом из Швейцарии. Якобы жена писателя принесла яблоки именно тогда, когда тот пытался придумать герою имя.
На роль Рэмбо планировались Джон Траволта, Дастин Хофман, Аль Пачино и Клинт Иствуд.
Первоначально планировавшийся бюджет в 11 миллионов долларов был значительно превышен. Общая стоимость фильма составила почти 15 миллионов долларов в связи с тем, что съёмочный процесс продлился на 1 месяц дольше.
Сильвестру Сталлоне первый вариант картины настолько не понравился, что актёр даже хотел выкупить ленту и уничтожить её. Впоследствии он договорился с продюсерами, чтобы его лицо в фильме появлялось как можно реже — это уменьшило хронометраж в 2 раза.
Фильм снимали в ряде провинций Британской Колумбии: Питт Лэйк; Питт Меадовс; Golden Ears Provincial Park; Хоуп; Порт Коквитлам; Северный Ванкувер. Многие сцены скомпонованы по закону золотого сечения, что добавляет им выразительности.
Сильвестр Сталлоне просил за роль 3,5 миллиона долларов, но продюсеры фильма уговорили его согласиться на 2 миллиона. Ещё 1,5 миллиона он получил от проката фильма на ТВ.
В режиссёрской версии присутствует альтернативная концовка, в которой полковник Траутман убивает Рэмбо по его желанию (в соответствии с сюжетом книги), однако тестовые просмотры показали, что зрители находят такое окончание слишком угнетающим. Альтернативная концовка присутствует как флешбэк в четвёртой части.
Несмотря на репутацию излишне жестокого фильма, в фильме погибает всего один человек — выпавший из вертолёта помощник шерифа Артур Галт. В книге же Рэмбо собственноручно убивает как минимум десяток полицейских и гражданских лиц.
После успеха фильма в СССР «Рэмбо» стало нарицательным ироническим названием людей, помешанных на «военщине». Например, в советском фильме «Паспорт» главный персонаж Мераб Папашвили говорит еврейскому дяде жены своего сводного брата, который считает его советским шпионом, а потому направляет на него пистолет: «С предохранителя сними, Рэмбо».



Скачать Рэмбо.Первая.кровь.First.Blood.(Тед.Котчефф).[1982.боевик.триллер.криминал.BDRip-AVC].[MVO]+[Оригинал].torrent без регистрации
Золото ЗОЛОТАЯ РАЗДАЧА! СКАЧАННОЕ НЕ ЗАСЧИТЫВАЕТСЯ! Золото
Дата: Зарегистрирован   [ Тип: внешний ] Как тут cкачать?
MAGNET ссылка
MAGNET ссылка


Скачать .torrent

15 KB

Статус: проверено DHT
Скачан: торрент - 165 раз, раздача полностью - 43 раз
Размер: 1,46 GB
Оценка:  - (Голосов: 0)
Поблагодарили: 2
Поделиться ссылкой на эту раздачу с друзьями:
В контактеFacebookОдноклассникиTwitterLivejournalМой МирLiveinternet
 

 
Показать сообщения:    


Вы не можете начинать темы
Вы не можете отвечать на сообщения
Вы не можете редактировать свои сообщения
Вы не можете удалять свои сообщения
Вы не можете голосовать в опросах
Вы не можете прикреплять файлы к сообщениям
Вы можете скачивать файлы