Loading...
Error

Скачать Рэмбо: Первая кровь 2 / Rambo: First Blood Part II (Джордж Пан Косматос) [1985, боевик, триллер, приключения, военный, BDRip-AVC] [MVO] торрент без регистрации

 
Статистика раздачи
Размер:  2,71 GB   |    Скачан:  114 раз
Сидов:  1  [  0 KB/s  ]  
 
Автор Сообщение

Marsianka

[] 

Рэмбо: Первая кровь 2 / Rambo: First Blood Part II (1985) BDRip-AVC | iPad | P
«What you call hell, he calls home»


Название: Рэмбо: Первая кровь 2
Оригинальное название: Rambo: First Blood Part II
Год выхода: 1985
Жанр: боевик, триллер, приключения, военный
Режиссер: Джордж Пан Косматос
В ролях: Сильвестр Сталлоне, Ричард Кренна, Чарльз Нэпьер, Стивен Беркофф, Джулия Никсон-Соул, Мартин Коув, Джордж Чунг, Войо Горич, Энди Вуд, Уильям Хент

О фильме:
Джон Рэмбо отбывает наказание в тюрьме строгого режима. Он смирился со своей участью, но несмотря на свое положение, он продолжает чтить основные заповеди военного братства: верить напарнику, прикрывать его спину, отдать свою жизнь за него и свою страну.
Когда полковник Траутман, бывший боевой командир Рэмбо предлагает ему отправиться во Вьетнам, на спецоперацию по спасению оставшихся в плену американских солдат, он не раздумывая соглашается.



Страна: США
Студия: Anabasis N.V.

Продолжительность: 01:36:00
Перевод: Русский профессиональный многоголосый закадровый

Файл
Кодек: H.264
Качество: BDRip [576p]
Видео: 1024x436 (2.35:1) at 23.976 fps, AVC at 3900 kbps
1: АAС 2.0 123 kbps - Русский профессиональный многоголосый закадровый
Субтитры: отсутствуют

General
Complete name : C:CREATE264mod1outRambo.II.1985.576p.P.m4v
Format : MPEG-4
Codec ID : M4V
File size : 2.71 GiB
Duration : 1h 36mn
Overall bit rate mode : Variable
Overall bit rate : 4 038 Kbps
Movie name : Рэмбо: Первая кровь 2
Performer : George P. Cosmatos
Genre : Action & Adventure
ContentType : Short Film
Deion : Джон Рэмбо отбывает наказание в тюрьме строгого режима. Он смирился со своей участью, но несмотря на свое положение, он продолжает чтить основные заповеди военного братства: верить напарнику, прикрывать его спину, отдать свою жизнь за него
Recorded date : UTC 1985-05-22 07:00:00
Encoded date : UTC 2014-06-07 19:11:39
Tagged date : UTC 2014-06-07 19:40:10
Copyright : Optimum Releasing
Service name : AOL
Cover : Yes
Comment : «What you call hell, he calls home.»
ContentRating : mpaa|R|400|

Title/Sort : Rambo: First Blood, Pt. II
LongDeion : Джон Рэмбо отбывает наказание в тюрьме строгого режима. Он смирился со своей участью, но несмотря на свое положение, он продолжает чтить основные заповеди военного братства: верить напарнику, прикрывать его спину, отдать свою жизнь за него и свою страну. / Когда полковник Траутман, бывший боевой командир Рэмбо предлагает ему отправиться во Вьетнам, на спецоперацию по спасению оставшихся в плену американских солдат, он не раздумывая соглашается.
AppleStoreAccountType : AOL
AppleStoreCountry : Unknown Country
AppleStoreCatalogID : 217457847
Vendor : Apple:vendor_id:1985-6352

Video
ID : 1
Format : AVC
Format/Info : Advanced Video Codec
Format profile : High@L4.1
Format settings, CABAC : Yes
Format settings, ReFrames : 10 frames
Codec ID : avc1
Codec ID/Info : Advanced Video Coding
Duration : 1h 36mn
Bit rate : 3 907 Kbps
Maximum bit rate : 18.4 Mbps
Width : 1 024 pixels
Height : 436 pixels
Display aspect ratio : 2.35:1
Frame rate mode : Constant
Frame rate : 23.976 fps
Color space : YUV
Chroma subsampling : 4:2:0
Bit depth : 8 bits
Scan type : Progressive
Bits/(Pixel*Frame) : 0.365
Stream size : 2.62 GiB (97%)
Language : English
Encoded date : UTC 2014-06-07 19:11:39
Tagged date : UTC 2014-06-07 19:12:07

Audio
ID : 2
Format : AAC
Format/Info : Advanced Audio Codec
Format profile : LC
Codec ID : 40
Duration : 1h 36mn
Bit rate mode : Variable
Bit rate : 123 Kbps
Maximum bit rate : 204 Kbps
Channel(s) : 2 channels
Channel positions : Front: L R
Sampling rate : 48.0 KHz
Compression mode : Lossy
Stream size : 84.3 MiB (3%)
Title : MVO
Language : Russian
Encoded date : UTC 2014-06-07 19:09:59
Tagged date : UTC 2014-06-07 19:12:07

x264 [info]: frame I:1174 Avg QP:14.86 size:135870
x264 [info]: frame P:35454 Avg QP:18.85 size: 44814
x264 [info]: frame B:101483 Avg QP:21.74 size: 10493
x264 [info]: consecutive B-frames: 4.4% 4.3% 15.0% 21.4% 19.3% 29.8% 4.1% 0.9% 0.4% 0.2% 0.1% 0.1% 0.0% 0.0% 0.0%
x264 [info]: mb I I16..4: 23.1% 40.9% 36.0%
x264 [info]: mb P I16..4: 0.7% 12.4% 3.6% P16..4: 23.6% 31.9% 17.8% 6.7% 1.7% skip: 1.7%
x264 [info]: mb B I16..4: 0.0% 2.2% 0.6% B16..8: 35.5% 19.9% 5.0% direct: 6.7% skip:30.1% L0:37.2% L1:46.1% BI:16.7%
x264 [info]: 8x8 transform intra:71.5% inter:48.0%
x264 [info]: coded y,uvDC,uvAC intra: 94.1% 78.4% 54.7% inter: 33.7% 18.4% 8.7%
x264 [info]: i16 v,h,dc,p: 4% 6% 34% 56%
x264 [info]: i8 v,h,dc,ddl,ddr,vr,hd,vl,hu: 10% 8% 9% 9% 13% 12% 13% 11% 13%
x264 [info]: i4 v,h,dc,ddl,ddr,vr,hd,vl,hu: 31% 7% 6% 7% 10% 10% 10% 9% 10%
x264 [info]: i8c dc,h,v,p: 37% 27% 19% 17%
x264 [info]: Weighted P-Frames: Y:6.4% UV:3.7%
x264 [info]: ref P L0: 60.2% 13.9% 10.6% 4.6% 3.2% 2.4% 1.9% 1.1% 1.0% 0.9% 0.2% 0.0%
x264 [info]: ref B L0: 91.5% 4.0% 1.8% 0.9% 0.6% 0.5% 0.4% 0.2% 0.1%
x264 [info]: ref B L1: 96.3% 3.7%
x264 [info]: kb/s:3906.99


Sort Name: Rambo: First Blood, Pt. II
XID: Apple:vendor_id:1985-6352
Content ID: 217457847
Copyright: Optimum Releasing
ScreenWriters: Сильвестр Сталлоне, Джеймс Кэмерон, Кевин Жарр
Producers: Мэл Деллар, Базз Фейтшанс, Марио Кассар
Director: Джордж Пан Косматос
Cast: Сильвестр Сталлоне, Ричард Кренна, Чарльз Нэпьер, Стивен Беркофф, Джулия Никсон-Соул, Мартин Коув, Джордж Чунг, Энди Вуд, William Ghent, Войо Горич
Rating: R
Long Deion: Джон Рэмбо отбывает наказание в тюрьме строгого режима. Он смирился со своей участью, но несмотря на свое положение, он продолжает чтить основные заповеди военного братства: верить напарнику, прикрывать его спину, отдать свою жизнь за него и свою страну.
Когда полковник Траутман, бывший боевой командир Рэмбо предлагает ему отправиться во Вьетнам, на спецоперацию по спасению оставшихся в плену американских солдат, он не раздумывая соглашается.
Deion: Джон Рэмбо отбывает наказание в тюрьме строгого режима. Он смирился со своей участью, но несмотря на свое положение, он продолжает чтить основные заповеди военного братства: верить напарнику, прикрывать его спину, отдать свою жизнь за него
Release Date: 1985-05-22T07:00:00Z
Genre: Action & Adventure
Artist: George P. Cosmatos
Name: Рэмбо: Первая кровь 2
Comments: «What you call hell, he calls home.»



Скачать Рэмбо.Первая.кровь.2.Rambo.First.Blood.Part.II.(Джордж.Пан.Косматос).[1985.боевик.триллер.приключения.военный.BDRip-AVC].[MVO].torrent без регистрации
Золото ЗОЛОТАЯ РАЗДАЧА! СКАЧАННОЕ НЕ ЗАСЧИТЫВАЕТСЯ! Золото
Дата: Зарегистрирован   [ Тип: внутренний ] Как тут cкачать?
MAGNET ссылка
MAGNET ссылка


Скачать .torrent

14 KB

Статус: проверено DHT
Скачан: торрент - 114 раз, раздача полностью - 16 раз
Размер: 2,71 GB
Оценка:  - (Голосов: 0)
Поблагодарили: 2
Поделиться ссылкой на эту раздачу с друзьями:
В контактеFacebookОдноклассникиTwitterLivejournalМой МирLiveinternet
 

 
Показать сообщения:    


Вы не можете начинать темы
Вы не можете отвечать на сообщения
Вы не можете редактировать свои сообщения
Вы не можете удалять свои сообщения
Вы не можете голосовать в опросах
Вы не можете прикреплять файлы к сообщениям
Вы можете скачивать файлы