Loading...
Error

Скачать Глаз тигра / Eye of the Tiger (Ричард Сарафьян) [1986, боевик, DVDRip] [DVO] торрент без регистрации

 
Статистика раздачи
Размер:  1,46 GB   |    Скачан:  97 раз
Сидов:  1  [  0 KB/s  ]  
 
Автор Сообщение

Marsianka

[] 

Информация о фильме
Название: Глаз тигра
Оригинальное название: Eye of the Tiger
Год выхода: 1986
Жанр: боевик
Режиссер: Ричард Сарафьян /Richard C. Sarafian
В ролях: Гэри Бьюзи, Яфет Котто, Сеймур Кассель, Берт Ремсен, Уильям Смит, Кимберлин Браун

О фильме:
Вернувшись с войны во Вьетнаме, Бак Мэтьюс устроился прорабом на стройке в своём небольшом городишке в Техасе. Однажды после ссоры в баре, защищая свою жизнь, он случайно убил бандита и оказался в тюрьме. Там он спас жизнь одному из очень влиятельных мексиканских гангстеров Джемми, с которым вместе и вышел на свободу. Чтобы отблагодарить Бака, мексиканец предложил ему поехать вместе с ним в Мексику...




Страна: США
Продолжительность: 01:31:59
Перевод: Профессиональный (двухголосый)

Файл
Кодек: XviD
Качество: DVDRip [исх. DVD5]
Видео: 720x400 (1.80:1), 23.976 fps, XviD build 50 ~2074 kbps avg, 0.30 bit/pixel
Звук: 48 kHz, AC3 Dolby Digital, 2/0 (L,R) ch, ~192.00 kbps avg
downloadEye_of_the_Tiger_1986.DVDRip.avi
Формат : AVI
Формат/Информация : Audio Video Interleave
Размер файла : 1.46 GiB
Продолжительность : 1h 31mn
Общий поток : 2 276 Kbps
Программа кодирования : VirtualDubMod 1.5.10.3 | www.virtualdub-fr.org || (build 2550/release)
Библиотека кодирования : VirtualDubMod build 2550/release

Video
Идентификатор : 0
Формат : MPEG-4 Visual
Профиль формата : Advanced Simple@L5
Параметр BVOP формата : 3
Параметр QPel формата : No
Параметр GMC формата : No warppoints
Параметр матрицы формата : Default (H.263)
Идентификатор кодека : XVID
Идентификатор кодека/Подсказка : XviD
Продолжительность : 1h 31mn
Битрейт : 2 074 Kbps
Ширина : 720 pixels
Высота : 400 pixels
Соотношение сторон : 16:9
Частота кадров : 23.976 fps
Цветовое пространство : YUV
Субдискретизация насыщенности : 4:2:0
Битовая глубина : 8 bits
Тип развёртки : Progressive
Метод сжатия : Lossy
Бит/(Пиксели*Кадры) : 0.300
Размер потока : 1.33 GiB (91%)
Библиотека кодирования : XviD 1.2.1 (UTC 2008-12-04)

Audio
Идентификатор : 1
Формат : AC-3
Формат/Информация : Audio Coding 3
Расширение режима : CM (complete main)
Параметр Endianness формата : Big
Идентификатор кодека : 2000
Продолжительность : 1h 31mn
Вид битрейта : Constant
Битрейт : 192 Kbps
Каналы : 2 channels
Расположение каналов : Front: L R
Частота : 48.0 KHz
Битовая глубина : 16 bits
Метод сжатия : Lossy
Размер потока : 126 MiB (8%)
Выравнивание : Split accross interleaves
Продолжительность промежутка : 42 ms (1.00 video frame)
Время предзагрузки промежутка : 500 ms
Релиз от:



Скачать Глаз.тигра.Eye.of.the.Tiger.(Ричард.Сарафьян).[1986.боевик.DVDRip].[DVO].torrent без регистрации
Золото ЗОЛОТАЯ РАЗДАЧА! СКАЧАННОЕ НЕ ЗАСЧИТЫВАЕТСЯ! Золото
Дата: Зарегистрирован   [ Тип: внутренний ] Как тут cкачать?
MAGNET ссылка
MAGNET ссылка


Скачать .torrent

15 KB

Статус: проверено DHT
Скачан: торрент - 97 раз, раздача полностью - 2 раз
Размер: 1,46 GB
Оценка:  - (Голосов: 0)
Поблагодарили: 1
Поделиться ссылкой на эту раздачу с друзьями:
В контактеFacebookОдноклассникиTwitterLivejournalМой МирLiveinternet
 

 
Показать сообщения:    


Вы не можете начинать темы
Вы не можете отвечать на сообщения
Вы не можете редактировать свои сообщения
Вы не можете удалять свои сообщения
Вы не можете голосовать в опросах
Вы не можете прикреплять файлы к сообщениям
Вы можете скачивать файлы