Loading...
Error

Скачать Старое ружье / Le Vieux Fusil (Робер Энрико) [1975, драма, триллер, военный, HDRip-AVC] [Dub] торрент без регистрации

 
Статистика раздачи
Размер:  1,45 GB   |    Скачан:  133 раза
Сидов:  1  [  0 KB/s  ]  
 
Автор Сообщение

Marsianka

[] 

Информация о фильме
Название: Старое ружье
Оригинальное название: Le Vieux Fusil
Год выхода: 1975
Жанр: драма, триллер, военный
Режиссер: Робер Энрико
В ролях: Филипп Нуаре, Роми Шнайдер, Жан Буиз, Иоахим Ханзен, Роберт Хоффманн, Карл Михаэль Фоглер, Каролина Бономм, Катрин Делапорт, Мадлен Озерэ, Даниэль Бретон

О фильме:
Франция, 1944 год. Хирург местной больницы, помогающий Сопротивлению, отсылает жену и дочь в деревню, а когда приезжает их навестить, видит тела зверски убитых людей, среди которых его застреленная дочь и соженная из огнемета жена. Эсэсовцы же все еще были на месте расправы, празднуя «победу» местного значения. Тогда хирург достает старое ружье, и начинается возмездие — доктор отлично знал все уголки этого старинного, неприступного замка, а дома, как говорится, и стены помогают…



Страна: Франция, Германия (ФРГ), Les Productions Artistes Associés, Mercure Productions, TIT Filmproduktion GmbH
Продолжительность: 01:37:43
Перевод: Дублированный
Дата релиза: 29.05.2013

Файл
Кодек: H.264
Качество: HDRip (AVC)
Видео: MPEG-4 AVC, 1934 Кбит/с, 960x576
Звук: Русский (AC3, 2 ch, 192 Кбит/с)
Общее
Уникальный идентификатор : 185410039478100063826472414989719154152 (0x8B7CACB946AFDABB81771C19D6CFADE8)
Полное имя : D:5Staroe.ruzhe.1975.x264.HDRip.(AVC).ExKinoRay.mkv
Формат : Matroska
Размер файла : 1,45 Гбайт
Продолжительность : 1 ч. 37 м.
Общий поток : 2126 Кбит/сек
Название фильма : Staroe.ruzhe.1975.x264.HDRip.(AVC).ExKinoRay
Дата кодирования : UTC 2014-05-29 14:09:13
Программа кодирования : mkvmerge v4.0.0 ('The Stars were mine') сборка от Jun 6 2010 16:18:42
Библиотека кодирования : libebml v1.0.0 + libmatroska v1.0.0

Видео
Идентификатор : 1
Формат : AVC
Формат/Информация : Advanced Video Codec
Профиль формата : High@L4.1
Параметр CABAC формата : Да
Параметр ReFrames формата : 8 кадров
Параметры GOP формата : M=9, N=25
Идентификатор кодека : V_MPEG4/ISO/AVC
Продолжительность : 1 ч. 37 м.
Битрейт : 1934 Кбит/сек
Ширина : 960 пикс.
Высота : 576 пикс.
Соотношение сторон : 1,667
Частота кадров : 25,000 кадр/сек
Цветовое пространство : YUV
Подвыборка цветности : 4:2:0
Битовая глубина : 8 бит
Тип развёртки : Прогрессивная
Бит/(Пиксели*Кадры) : 0.140
Размер потока : 1,29 Гбайт (89%)
Заголовок : Rip by Enigma-Vladislav71
Библиотека кодирования : x264 core 125 r2208 d9d2288
Настройки программы : cabac=1 / ref=8 / deblock=1:-2:-2 / analyse=0x3:0x133 / me=umh / subme=11 / psy=1 / psy_rd=1.00:0.00 / mixed_ref=1 / me_range=48 / chroma_me=1 / trellis=2 / 8x8dct=1 / cqm=0 / deadzone=21,11 / fast_pskip=0 / chroma_qp_offset=-2 / threads=3 / lookahead_threads=1 / sliced_threads=0 / nr=0 / decimate=0 / interlaced=0 / bluray_compat=0 / constrained_intra=0 / bframes=8 / b_pyramid=2 / b_adapt=2 / b_bias=0 / direct=3 / weightb=1 / open_gop=0 / weightp=2 / keyint=250 / keyint_min=25 / scenecut=40 / intra_refresh=0 / rc=2pass / mbtree=0 / bitrate=1934 / ratetol=1.0 / qcomp=0.60 / qpmin=10 / qpmax=51 / qpstep=4 / cplxblur=20.0 / qblur=0.5 / ip_ratio=1.40 / pb_ratio=1.30 / aq=1:1.00

Аудио
Идентификатор : 2
Формат : AC-3
Формат/Информация : Audio Coding 3
Расширение режима : CM (complete main)
Идентификатор кодека : A_AC3
Продолжительность : 1 ч. 37 м.
Вид битрейта : Постоянный
Битрейт : 192 Кбит/сек
Каналы : 2 канала
Расположение каналов : Front: L R
Частота : 48,0 КГц
Битовая глубина : 16 бит
Метод сжатия : С потерями
Размер потока : 134 Мбайт (9%)
Язык : Russian
Релиз от:

Авторы релиза:



Скачать Старое.ружье.Le.Vieux.Fusil.(Робер.Энрико).[1975.драма.триллер.военный.HDRip-AVC].[Dub].torrent без регистрации
Золото ЗОЛОТАЯ РАЗДАЧА! СКАЧАННОЕ НЕ ЗАСЧИТЫВАЕТСЯ! Золото
Дата: Зарегистрирован   [ Тип: внутренний ] Как тут cкачать?
MAGNET ссылка
MAGNET ссылка


Скачать .torrent

15 KB

Статус: проверено DHT
Скачан: торрент - 133 раз, раздача полностью - 91 раз
Размер: 1,45 GB
Оценка:  5 (Голосов: 1)
Поблагодарили: 2
Поделиться ссылкой на эту раздачу с друзьями:
В контактеFacebookОдноклассникиTwitterLivejournalМой МирLiveinternet
 

 
Показать сообщения:    


Вы не можете начинать темы
Вы не можете отвечать на сообщения
Вы не можете редактировать свои сообщения
Вы не можете удалять свои сообщения
Вы не можете голосовать в опросах
Вы не можете прикреплять файлы к сообщениям
Вы можете скачивать файлы