Loading...
Error

Скачать Очень русский детектив (Кирилл Папакуль) [2008, "чёрная" комедия, детектив, пародия, DVDRip-AVC] торрент без регистрации

 
Статистика раздачи
Размер:  1,38 GB   |    Скачан:  124 раза
Сидов:  1  [  0 KB/s  ]  
 
Автор Сообщение

МихаНЕзатор

[] 

Очень русский детектив


Жанр: "чёрная" комедия, детектив, пародия
Год выпуска: 2008
Продолжительность: 01:49:14
Режиссёр: Кирилл Папакуль (Карлл Панака)

В ролях: Юрий Стоянов, Максим Коновалов, Михаил Шац, Вадим Галыгин, Александр Семчев, Таир Мамедов, Лариса Баранова, Алексей Дедов, Владис Гольк, Тимур Муканов, Ольга Тумайкина, Александр Олешко, Наталья Андрейченко, Ангелина Миримская, Марина Казанкова, Егор Алексеев, Хаджимурат Набиев, Евгений Воскресенский, Борис Эстрин, Евгений Косырев, Алексей Ошурков, Алексей Дмитриев, Юлия Беретта, Евгений Кулаков, Евгений Герчаков, Дмитрий Брекоткин, Андрей Балякин, Елена Новикова, Павел Поймалов, Татьяна Жукова-Киртбая, Андрей Кайков, Кирилл Папакуль, Валерия Кудрявцева, Наталья Кузьмина, Карина Хидэкель, Егор Пирогов, Елизавета Водолазская, Александр Каплан, Юлия Косова, Иван Лебедев, Владимир Микулич, Татьяна Морозова, Юлия Налимова, Кузьма Папакуль, Александр Пашковский, Виктор Полторацкий, Андрей Рюмин, Федор Савельев, Владимир Фенченко, Брюс Хлебников, Любовь Чувахина, Владимир Шерман, Владимир Лёд

Описание: Уходящий на пенсию полицейский вынужден задержаться на службе, чтобы вместе с напарником раскрыть серию жутких убийств. Маньяк расправляется со своими жертвами, используя в названии каждого нового орудия убийства очередную букву русского алфавита. С помощью дедукции, сети осведомителей и собственной интуиции отважные копы пытаются остановить душегуба. Тридцать три жизни, тридцать три буквы - и всего два героя...
Доп. информация: Надписи в фильме выполнены на английском языке. Их перевод, а также перевод разговоров на других языках зачитывает известный переводчик зарубежных фильмов 1990-х годов Андрей Гаврилов.



Качество видео: DVDRip-AVC
Формат видео: MKV
Видео: AVC x264, 720х304 (2.35:1), 25 fps, 1417 Kbps
Аудио: AC3, 48.0 KHz, 6 ch, 384 Kbps

АНОНСЫ ПОПУЛЯРНЫХ РАЗДАЧ
General
Unique ID : 196917137416259364444149152638603721212 (0x9424DC74695A257FAAAFC748D93979FC)
Complete name : H:\видео\Очень русский детектив.mkv
Format : Matroska
Format version : Version 4 / Version 2
File size : 1.38 GiB
Duration : 1h 49mn
Overall bit rate : 1 803 Kbps
Encoded date : UTC 2010-02-22 21:41:31
Writing application : mkvmerge v5.9.0 ('On The Loose') built on Dec 9 2012 15:37:01
Writing library : libebml v1.3.0 + libmatroska v1.4.0
Video
ID : 1
Format : AVC
Format/Info : Advanced Video Codec
Format profile : High@L3.0
Format settings, CABAC : Yes
Format settings, ReFrames : 8 frames
Codec ID : V_MPEG4/ISO/AVC
Duration : 1h 49mn
Bit rate : 1 417 Kbps
Width : 720 pixels
Height : 304 pixels
Display aspect ratio : 2.35:1
Frame rate mode : Constant
Frame rate : 25.000 fps
Color space : YUV
Chroma subsampling : 4:2:0
Bit depth : 8 bits
Scan type : Progressive
Bits/(Pixel*Frame) : 0.259
Stream size : 1.05 GiB (77%)
Title : Очень русский детектив DVDRip-AVC
Writing library : x264 core 129 r2230 1cffe9f
Encoding settings : cabac=1 / ref=8 / deblock=1:-1:-1 / analyse=0x3:0x133 / me=tesa / subme=11 / psy=1 / psy_rd=1.00:0.15 / mixed_ref=1 / me_range=32 / chroma_me=1 / trellis=2 / 8x8dct=1 / cqm=0 / deadzone=21,11 / fast_pskip=0 / chroma_qp_offset=-3 / threads=6 / lookahead_threads=1 / sliced_threads=0 / nr=0 / decimate=1 / interlaced=0 / bluray_compat=0 / constrained_intra=0 / bframes=16 / b_pyramid=2 / b_adapt=2 / b_bias=0 / direct=3 / weightb=1 / open_gop=0 / weightp=2 / keyint=250 / keyint_min=25 / scenecut=40 / intra_refresh=0 / rc=2pass / mbtree=0 / bitrate=1417 / ratetol=1.0 / qcomp=0.60 / qpmin=0 / qpmax=69 / qpstep=4 / cplxblur=20.0 / qblur=0.5 / ip_ratio=1.40 / pb_ratio=1.30 / aq=1:1.00
Language : Russian
Default : Yes
Forced : No
Audio
ID : 2
Format : AC-3
Format/Info : Audio Coding 3
Mode extension : CM (complete main)
Format settings, Endianness : Big
Codec ID : A_AC3
Duration : 1h 49mn
Bit rate mode : Constant
Bit rate : 384 Kbps
Channel(s) : 6 channels
Channel positions : Front: L C R, Side: L R, LFE
Sampling rate : 48.0 KHz
Bit depth : 16 bits
Compression mode : Lossy
Stream size : 300 MiB (21%)
Language : Russian
Default : Yes
Forced : No



Скачать Очень.русский.детектив.(Кирилл.Папакуль).[2008."чёрная".комедия.детектив.пародия.DVDRip-AVC].torrent без регистрации
Золото ЗОЛОТАЯ РАЗДАЧА! СКАЧАННОЕ НЕ ЗАСЧИТЫВАЕТСЯ! Золото
Дата: Зарегистрирован   [ Тип: внутренний ] Как тут cкачать?
MAGNET ссылка
MAGNET ссылка


Скачать .torrent

14 KB

Статус: проверено DHT
Скачан: торрент - 124 раз, раздача полностью - 1 раз
Размер: 1,38 GB
Оценка:  - (Голосов: 0)
Поблагодарили: 0
Поделиться ссылкой на эту раздачу с друзьями:
В контактеFacebookОдноклассникиTwitterLivejournalМой МирLiveinternet
 

 
Показать сообщения:    


Вы не можете начинать темы
Вы не можете отвечать на сообщения
Вы не можете редактировать свои сообщения
Вы не можете удалять свои сообщения
Вы не можете голосовать в опросах
Вы не можете прикреплять файлы к сообщениям
Вы можете скачивать файлы