Loading...
Error

Скачать Ночи полнолуния / Les nuits de la pleine lune (Эрик Ромер) [1984, драма, мелодрама, BDRip-AVC] [VO] торрент без регистрации

 
Статистика раздачи
Размер:  1,45 GB   |    Скачан:  105 раз
Сидов:  1  [  0 KB/s  ]  
 
Автор Сообщение

Marsianka

[] 

Информация о фильме
Название: Ночи полнолуния
Оригинальное название: Les nuits de la pleine lune
Год выхода: 1984
Жанр: драма, мелодрама
Режиссер: Эрик Ромер
В ролях: Паскаль Ожье, Чеки Карио, Фабрис Лукини, Виржини Тевене, Кристиан Вадим, Ласло Сабо, Лиза Гарнери, Матьё Шиффман, Анн-Северин Лиотар, Эрве Грансар
О фильме:
Стажерка в фирме по дизайну интерьера, Луиза, живет со своим любовником Реми недалеко от Парижа. Он хочет жениться и завести детей, но Луиза еще молода, ей нравятся вечеринки и танцы до рассвета. Когда давление Реми становится невыносимым, она снимает квартирку в Париже. Часто проводит время с Октавом, писателем, который мучается и страдает из-за того, что Луиза отказывает ему в близости. На одной роковой вечеринке Луиза встречает Бастьена и приглашает его в свою парижскую квартиру. Очень скоро, однако, она начинает жалеть об этом, поняв, что любит Реми…



Страна: Франция, Les Films Ariane, Les Films du Losange
Продолжительность: 01:41:19
Перевод: Любительский одноголосый
Дата релиза: 09.06.2014

Файл
Кодек: H.264
Качество: BDRip (AVC)
Видео: MPEG-4 AVC, 1861 Кбит/с, 784x576
Звук: Русский (AC3, 2 ch, 192 Кбит/с)
Общее
Уникальный идентификатор : 206063703737414306505872619091904365197 (0x9B066CFDD0DBFBFB80AF9D982AB3028D)
Полное имя : D:7Nochi.polnolunija.1984.x264.BDRip.(AVC).ExKinoRay.mkv
Формат : Matroska
Размер файла : 1,45 Гбайт
Продолжительность : 1 ч. 41 м.
Общий поток : 2054 Кбит/сек
Название фильма : Nochi.polnolunija.1984.x264.BDRip.(AVC).ExKinoRay
Дата кодирования : UTC 2014-06-09 18:14:27
Программа кодирования : mkvmerge v4.0.0 ('The Stars were mine') сборка от Jun 6 2010 16:18:42
Библиотека кодирования : libebml v1.0.0 + libmatroska v1.0.0
Обложка : Yes

Видео
Идентификатор : 1
Формат : AVC
Формат/Информация : Advanced Video Codec
Профиль формата : High@L4.1
Параметр CABAC формата : Да
Параметр ReFrames формата : 8 кадров
Идентификатор кодека : V_MPEG4/ISO/AVC
Продолжительность : 1 ч. 41 м.
Битрейт : 1861 Кбит/сек
Ширина : 784 пикс.
Высота : 576 пикс.
Соотношение сторон : 4:3
Частота кадров : 24,000 кадр/сек
Цветовое пространство : YUV
Подвыборка цветности : 4:2:0
Битовая глубина : 8 бит
Тип развёртки : Прогрессивная
Бит/(Пиксели*Кадры) : 0.172
Размер потока : 1,29 Гбайт (89%)
Заголовок : Rip by Enigma-Vladislav71
Библиотека кодирования : x264 core 125 r2208 d9d2288
Настройки программы : cabac=1 / ref=8 / deblock=1:-2:-2 / analyse=0x3:0x133 / me=umh / subme=11 / psy=1 / psy_rd=1.00:0.00 / mixed_ref=1 / me_range=32 / chroma_me=1 / trellis=2 / 8x8dct=1 / cqm=0 / deadzone=21,11 / fast_pskip=0 / chroma_qp_offset=-2 / threads=3 / lookahead_threads=1 / sliced_threads=0 / nr=0 / decimate=0 / interlaced=0 / bluray_compat=0 / constrained_intra=0 / bframes=8 / b_pyramid=2 / b_adapt=2 / b_bias=0 / direct=3 / weightb=1 / open_gop=0 / weightp=2 / keyint=240 / keyint_min=23 / scenecut=40 / intra_refresh=0 / rc=2pass / mbtree=0 / bitrate=1861 / ratetol=1.0 / qcomp=0.60 / qpmin=10 / qpmax=51 / qpstep=4 / cplxblur=20.0 / qblur=0.5 / ip_ratio=1.40 / pb_ratio=1.30 / aq=1:1.00

Аудио
Идентификатор : 2
Формат : AC-3
Формат/Информация : Audio Coding 3
Расширение режима : CM (complete main)
Идентификатор кодека : A_AC3
Продолжительность : 1 ч. 41 м.
Вид битрейта : Постоянный
Битрейт : 192 Кбит/сек
Каналы : 2 канала
Расположение каналов : Front: L R
Частота : 48,0 КГц
Битовая глубина : 16 бит
Метод сжатия : С потерями
Размер потока : 139 Мбайт (9%)
Язык : Russian
Релиз от:

Авторы релиза:



Скачать Ночи.полнолуния.Les.nuits.de.la.pleine.lune.(Эрик.Ромер).[1984.драма.мелодрама.BDRip-AVC].[VO].torrent без регистрации
Золото ЗОЛОТАЯ РАЗДАЧА! СКАЧАННОЕ НЕ ЗАСЧИТЫВАЕТСЯ! Золото
Дата: Зарегистрирован   [ Тип: внутренний ] Как тут cкачать?
MAGNET ссылка
MAGNET ссылка


Скачать .torrent

15 KB

Статус: проверено DHT
Скачан: торрент - 105 раз, раздача полностью - 0 раз
Размер: 1,45 GB
Оценка:  - (Голосов: 0)
Поблагодарили: 1
Поделиться ссылкой на эту раздачу с друзьями:
В контактеFacebookОдноклассникиTwitterLivejournalМой МирLiveinternet
 

 
Показать сообщения:    


Вы не можете начинать темы
Вы не можете отвечать на сообщения
Вы не можете редактировать свои сообщения
Вы не можете удалять свои сообщения
Вы не можете голосовать в опросах
Вы не можете прикреплять файлы к сообщениям
Вы можете скачивать файлы