Loading...
Error

Скачать Игра / The Game (Дэвид Финчер) [1997, фантастика, боевик, приключения, BDRip-AVC] [Dub]+[Оригинал]+[Sub]x2 торрент без регистрации

 
Статистика раздачи
Размер:  2,19 GB   |    Скачан:  192 раза
Сидов:  36  [  0 KB/s  ]   Личеров:  1  [  0 KB/s  ]  
 
Автор Сообщение

Marsianka

[] 

«Вы готовы играть?»

Страна: США
Производство: A&B Producoes, Lda., PolyGram Filmed Entertainment, Propaganda Films

Жанр: фантастика, боевик, приключения
Год выпуска: 1997
Продолжительность: 02:08:43

Перевод: Профессиональный (полное дублирование)
Оригинальная аудиодорожка: английский
Cубтитры: русский, английский

Режиссер: Дэвид Финчер / David Fincher

В ролях:
Майкл Дуглас, Шон Пенн, Дебора Кара Ангер, Джеймс Ребхорн, Питер Донат, Кэррол Бейкер, Анна Катарина, Армин Мюллер-Шталь, Чарльз Мартине, Юдзи Окумото...

Роли дублировали:
Владимир Еремин, Всеволод Кузнецов, Ольга Плетнёва, Владимир Антоник, Рогволд Суховерко...

Описание:
Николас Ван Ортон — само воплощение успеха. Он преуспевает, он невозмутим и спокоен, привык держать любую ситуацию под контролем. На день рождения Николас получает необычный подарок — билет для участия в «Игре». Ему обещают, что игра вернет яркие чувства, позволит ощутить вкус и остроту жизни. Вступив в игру, Николас начинает осознавать, что это игра всерьез, игра не на жизнь, а на смерть.

Исходник: BDRemux 1080p
Тип релиза: BDRip-AVC
Контейнер: MKV

Видео: 1024x426 (2,40:1), 23,976 fps, H264 ~ 1660 kbps avg, 0.159 bit/pixel
Аудио: 48 kHz, Dolby Digital AC3 5.1, 384 kbps DUB
Аудио: 48 kHz, Dolby Digital AC3 5.1, 384 kbps Английский
Оригинальная навигация по главам: есть
Субтитры: SoftSub (srt)
Раздача от:

Общее
Полное имя : Igra.1997.BDRip-AVC_[New-team]_by_AVP_Studio.mkv
Формат : Matroska
Версия формата : Version 4 / Version 2
Размер файла : 2,19 Гбайт
Продолжительность : 2 ч. 8 м.
Общий поток : 2430 Кбит/сек
Название фильма : Igra.1997.BDRip-AVC_[New-team]_by_AVP_Studio
Дата кодирования : UTC 2014-06-09 18:55:03
Программа кодирования : mkvmerge v6.9.1 ('Blue Panther') 64bit built on Apr 18 2014 18:23:38
Библиотека кодирования : libebml v1.3.0 + libmatroska v1.4.1

Видео
Идентификатор : 1
Формат : AVC
Формат/Информация : Advanced Video Codec
Профиль формата : High@L4.1
Параметр CABAC формата : Да
Параметр ReFrames формата : 8 кадров
Идентификатор кодека : V_MPEG4/ISO/AVC
Продолжительность : 2 ч. 8 м.
Битрейт : 1660 Кбит/сек
Ширина : 1024 пикселя
Высота : 426 пикселей
Соотношение сторон : 2,40:1
Режим частоты кадров : Постоянный
Частота кадров : 23,976 кадра/сек
Цветовое пространство : YUV
Субдискретизация насыщенности : 4:2:0
Битовая глубина : 8 бит
Тип развёртки : Прогрессивная
Бит/(Пиксели*Кадры) : 0.159
Размер потока : 1,45 Гбайт (66%)
Заголовок : Источник BDRemux
Библиотека кодирования : x264 core 138 r2356 a1d3d17
Настройки программы : cabac=1 / ref=8 / deblock=1:-3:-2 / analyse=0x3:0x113 / me=umh / subme=10 / psy=1 / psy_rd=1.00:0.05 / mixed_ref=1 / me_range=32 / chroma_me=1 / trellis=2 / 8x8dct=1 / cqm=0 / deadzone=21,11 / fast_pskip=0 / chroma_qp_offset=-3 / threads=6 / lookahead_threads=1 / sliced_threads=0 / nr=0 / decimate=0 / interlaced=0 / bluray_compat=0 / constrained_intra=0 / bframes=8 / b_pyramid=2 / b_adapt=2 / b_bias=0 / direct=3 / weightb=1 / open_gop=0 / weightp=2 / keyint=240 / keyint_min=24 / scenecut=40 / intra_refresh=0 / rc_lookahead=40 / rc=2pass / mbtree=1 / bitrate=1660 / ratetol=1.0 / qcomp=0.60 / qpmin=0 / qpmax=69 / qpstep=4 / cplxblur=20.0 / qblur=0.5 / ip_ratio=1.40 / aq=1:1.00
Язык : English
Default : Да
Forced : Нет

Аудио #1
Идентификатор : 2
Формат : AC-3
Формат/Информация : Audio Coding 3
Расширение режима : CM (complete main)
Параметр Endianness формата : Big
Идентификатор кодека : A_AC3
Продолжительность : 2 ч. 8 м.
Вид битрейта : Постоянный
Битрейт : 384 Кбит/сек
Каналы : 6 каналов
Расположение каналов : Front: L C R, Side: L R, LFE
Частота : 48,0 КГц
Битовая глубина : 16 бит
Метод сжатия : С потерями
Размер потока : 354 Мбайт (16%)
Заголовок : Источник BDRemux Dolby Digital 5,1 384kb DUB
Язык : Russian
Default : Да
Forced : Нет

Аудио #2
Идентификатор : 3
Формат : AC-3
Формат/Информация : Audio Coding 3
Расширение режима : CM (complete main)
Параметр Endianness формата : Big
Идентификатор кодека : A_AC3
Продолжительность : 2 ч. 8 м.
Вид битрейта : Постоянный
Битрейт : 384 Кбит/сек
Каналы : 6 каналов
Расположение каналов : Front: L C R, Side: L R, LFE
Частота : 48,0 КГц
Битовая глубина : 16 бит
Метод сжатия : С потерями
Размер потока : 354 Мбайт (16%)
Заголовок : Источник BDRemux Dolby Digital 5,1 384kb
Язык : English
Default : Нет
Forced : Нет

Текст #1
Идентификатор : 4
Формат : UTF-8
Идентификатор кодека : S_TEXT/UTF8
Идентификатор кодека/Информация : UTF-8 Plain Text
Заголовок : Источник BDRemux SoftSub (srt)
Язык : Russian
Default : Нет
Forced : Нет

Текст #2
Идентификатор : 5
Формат : UTF-8
Идентификатор кодека : S_TEXT/UTF8
Идентификатор кодека/Информация : UTF-8 Plain Text
Заголовок : Источник BDRemux SoftSub (srt)
Язык : English
Default : Нет
Forced : Нет

Меню
00:00:00.000 : en:Opening titles
00:01:06.275 : en:Birthday party
00:02:52.422 : en:“Happy birthday, sir”
00:05:51.851 : en:Profound life experience
00:09:27.734 : en:Forty-eight
00:13:41.738 : en:Consumer Recreation Services
00:17:54.365 : en:“Confused . . . risky . . . bloody . . . whoops”
00:20:52.543 : en:John 9:25
00:24:49.405 : en:“This is your Game, and welcome to it”
00:30:47.846 : en:Helping hand
00:34:00.538 : en:“Don’t let her get away”
00:43:13.508 : en:Czar Nicholas
00:51:09.984 : en:Guy in the gray flannel suit
00:53:55.816 : en:Hotel Nikko
00:59:11.339 : en:Toyed with by depraved children
01:04:56.392 : en:Nicholas Van Cocksucker
01:08:06.541 : en:Human piñata
01:12:31.556 : en:California Regal Sedans
01:15:57.803 : en:Motive
01:18:55.397 : en:Cable Repair Specialists
01:26:49.454 : en:Blue 2/9690D
01:33:56.422 : en:Entombed
01:37:29.927 : en:“Can I have your attention, please?”
01:42:23.095 : en:Trust Taggarene
01:45:14.016 : en:“I love your work”
01:48:25.791 : en:Pulling back the curtain
01:52:38.293 : en:“This is the Game”
01:59:28.119 : en:Cordially invited
02:03:44.250 : en:End credits



Скачать Игра.The.Game.(Дэвид.Финчер).[1997.фантастика.боевик.приключения.BDRip-AVC].[Dub]+[Оригинал]+[Sub]x2.torrent без регистрации
Золото ЗОЛОТАЯ РАЗДАЧА! СКАЧАННОЕ НЕ ЗАСЧИТЫВАЕТСЯ! Золото
Дата: Зарегистрирован   [ Тип: внешний ] Как тут cкачать?
MAGNET ссылка
MAGNET ссылка


Скачать .torrent

12 KB

Статус: проверено DHT
Скачан: торрент - 192 раз, раздача полностью - 298 раз
Размер: 2,19 GB
Оценка:  5 (Голосов: 2)
Поблагодарили: 6
Поделиться ссылкой на эту раздачу с друзьями:
В контактеFacebookОдноклассникиTwitterLivejournalМой МирLiveinternet
 

 
Показать сообщения:    


Вы не можете начинать темы
Вы не можете отвечать на сообщения
Вы не можете редактировать свои сообщения
Вы не можете удалять свои сообщения
Вы не можете голосовать в опросах
Вы не можете прикреплять файлы к сообщениям
Вы можете скачивать файлы