Loading...
Error

Скачать Возлюбленный язычник / Beloved Infidel (Генри Кинг) [1959, драма, мелодрама, BDRip] [AVO (Алексей Яковлев)]+[Sub] торрент без регистрации

 
Статистика раздачи
Размер:  2,13 GB   |    Скачан:  92 раза
Сидов:  1  [  0 KB/s  ]  
 
Автор Сообщение

Marsianka

[] 

Название: Возлюбленный язычник
Оригинальное название: Beloved Infidel
Год выпуска: 1959
Жанр: драма, мелодрама
Выпущено: США, 20th Century Fox Film Corporation, The Company of Artists
Режиссер: Генри Кинг
В ролях: Грегори Пек, Дебора Керр, Эдди Альберт, Филип Обер, Герберт Радли, Джон Саттон, Карин Бут, Кен Скотт, Синди Амес, Мэл Бергер

О фильме: Длительный и бурный роман Шейлы Грэм и известного американского писателя Фрэнсиса Скотта Фицджеральда ("Ночь нежна", "Великий Гэтсби"), имевший место в 30-х годах, послужил темой этой любовной драмы. А за основу сценарист Сай Бартлетт взял автобиографическую книгу Грэм, написанную с помощью Джеролда Фрэнка.

Качество: BDRip
Видео: XviD, 1575 Кбит/с, 720x304
Аудио: Русский, английский (AC3, 4 ch, 448 Кбит/с)
Размер: 2.13 ГБ
Продолжительность: 2:03:02
Перевод: Авторский (Алексей Яковлев)
Субтитры: Английские

Исходник: owain (Кинозал)

Сравнение с исходником

Общее
Полное имя : D:VideoVozljublennyj jazychnik.1959.BDRipVozljublennyj jazychnik.1959.BDRip.avi
Формат : AVI
Формат/Информация : Audio Video Interleave
Размер файла : 1,75 Гбайт
Продолжительность : 2 ч. 3 м.
Общий поток : 2032 Кбит/сек
Программа кодирования : VirtualDubMod 1.5.10.2 (build 2540/release)
Библиотека кодирования : VirtualDubMod build 2540/release

Видео
Идентификатор : 0
Формат : MPEG-4 Visual
Профиль формата : Advanced Simple@L5
Параметр BVOP формата : 1
Параметр QPel формата : Нет
Параметр GMC формата : Без точки перехода
Параметр матрицы формата : Default (H.263)
Режим смешивания : Сжатый битовый поток
Идентификатор кодека : XVID
Идентификатор кодека/Подсказка : XviD
Продолжительность : 2 ч. 3 м.
Битрейт : 1575 Кбит/сек
Ширина : 720 пикселей
Высота : 304 пикселя
Соотношение сторон : 2,35:1
Частота кадров : 23,976 кадра/сек
Цветовое пространство : YUV
Субдискретизация насыщенности : 4:2:0
Битовая глубина : 8 бит
Тип развёртки : Прогрессивная
Метод сжатия : С потерями
Бит/(Пиксели*Кадры) : 0.300
Размер потока : 1,35 Гбайт (77%)
Библиотека кодирования : XviD 1.2.1 (UTC 2008-12-04)

Аудио
Идентификатор : 1
Формат : AC-3
Формат/Информация : Audio Coding 3
Расширение режима : CM (complete main)
Параметр Endianness формата : Big
Идентификатор кодека : 2000
Продолжительность : 2 ч. 3 м.
Вид битрейта : Постоянный
Битрейт : 448 Кбит/сек
Каналы : 4 канала
Расположение каналов : Front: L C R, LFE
Частота : 48,0 КГц
Битовая глубина : 16 бит
Метод сжатия : С потерями
Размер потока : 394 Мбайт (22%)
Выравнивание : Разделение по промежуткам
Продолжительность промежутка : 42 мс. (1,00 видеокадр)
Время предзагрузки промежутка : 500 мс.

Общее
Полное имя : D:VideoVozljublennyj jazychnik.1959.BDRipVozljublennyj jazychnik.1959.eng.SDH.srt
Размер файла : 222 Кбайт

Общее
Полное имя : D:VideoVozljublennyj jazychnik.1959.BDRipVozljublennyj jazychnik.1959.Original.eng.ac3
Формат : AC-3
Формат/Информация : Audio Coding 3
Размер файла : 394 Мбайт
Продолжительность : 2 ч. 3 м.
Режим общего битрейта : Постоянный
Общий поток : 448 Кбит/сек

Аудио
Формат : AC-3
Формат/Информация : Audio Coding 3
Расширение режима : CM (complete main)
Параметр Endianness формата : Big
Продолжительность : 2 ч. 3 м.
Вид битрейта : Постоянный
Битрейт : 448 Кбит/сек
Каналы : 4 канала
Расположение каналов : Front: L C R, Back: C
Частота : 48,0 КГц
Битовая глубина : 16 бит
Метод сжатия : С потерями
Размер потока : 394 Мбайт (100%)



Скачать Возлюбленный.язычник.Beloved.Infidel.(Генри.Кинг).[1959.драма.мелодрама.BDRip].[AVO.(Алексей.Яковлев)]+[Sub].torrent без регистрации
Золото ЗОЛОТАЯ РАЗДАЧА! СКАЧАННОЕ НЕ ЗАСЧИТЫВАЕТСЯ! Золото
Дата: Зарегистрирован   [ Тип: внутренний ] Как тут cкачать?
MAGNET ссылка
MAGNET ссылка


Скачать .torrent

11 KB

Статус: проверено DHT
Скачан: торрент - 92 раз, раздача полностью - 0 раз
Размер: 2,13 GB
Оценка:  - (Голосов: 0)
Поблагодарили: 0
Поделиться ссылкой на эту раздачу с друзьями:
В контактеFacebookОдноклассникиTwitterLivejournalМой МирLiveinternet
 

 
Показать сообщения:    


Вы не можете начинать темы
Вы не можете отвечать на сообщения
Вы не можете редактировать свои сообщения
Вы не можете удалять свои сообщения
Вы не можете голосовать в опросах
Вы не можете прикреплять файлы к сообщениям
Вы можете скачивать файлы