Loading...
Error

Скачать Детектор лжи / Deceiver (Джонас Пэйт, Джош Пэйт) [1997, триллер, драма, криминал, детектив, DVDRip-AVC] [MVO]+[Оригинал] торрент без регистрации

 
Статистика раздачи
Размер:  1,46 GB   |    Скачан:  114 раз
Сидов:  11  [  0 KB/s  ]  
 
Автор Сообщение

Marsianka

[] 

Страна: США
Производство: MDP Worldwide

Жанр: триллер, драма, криминал, детектив
Год выпуска: 1997
Продолжительность: 01:41:56

Перевод: Профессиональный (многоголосый, закадровый)
Оригинальная аудиодорожка: английский
Cубтитры: нет

Режиссер: Джонас Пэйт /Jonas Pate, Джош Пэйт /Josh Pate

В ролях:
Тим Рот /Tim Roth/, Крис Пенн /Chris Penn/, Майкл Рукер /Michael Rooker/, Рени Зеллвегер /Renee Zellweger/, Эллен Берстин /Ellen Burstyn/, Розанна Аркетт /Rosanna Arquette/...

Описание:
Совершено ужасное преступление — жестоко убита молодая девушка. Основной подозреваемый — капризный отпрыск богатых родителей Джемс Уолтер Уэйланд. Но убийца ли он? Это покажут напряженные допросы, которые превратятся в захватывающую игру трех профессионалов, выведывающих друг у друга самые мрачные тайны. Удастся ли выяснить, кто перед нами — убийца, алкоголик и психопат или невинный человек, ставший жертвой обстоятельств? И кто допрашивает его — честные блюстители закона или хладнокровные мерзавцы? Их разделяет тонкая грань и между ними лишь беспристрастный детектор лжи…

Исходник: DVD5 R5
Тип релиза: DVDRip-AVC
Контейнер: MKV

Видео: 696->1024x440 (2,35:1), 25 fps, H264 ~ 1274 kbps avg, 0.166 bit/pixel
Аудио: 48 kHz, Dolby Digital AC3 5,1, 384 kbps MVO
Аудио: 48 kHz, Dolby Digital AC3 5,1, 384 kbps Английский
Раздача от:

Общее
Полное имя : Detektor.lzhi.1997.DVDRip-AVC_[New-team]_by_AVP_Studio.mkv
Формат : Matroska
Версия формата : Version 4 / Version 2
Размер файла : 1,46 Гбайт
Продолжительность : 1 ч. 41 м.
Общий поток : 2044 Кбит/сек
Название фильма : Detektor.lzhi.1997.DVDRip-AVC_[New-team]_by_AVP_Studio
Дата кодирования : UTC 2014-06-10 15:49:37
Программа кодирования : mkvmerge v6.9.1 ('Blue Panther') 64bit built on Apr 18 2014 18:23:38
Библиотека кодирования : libebml v1.3.0 + libmatroska v1.4.1

Видео
Идентификатор : 1
Формат : AVC
Формат/Информация : Advanced Video Codec
Профиль формата : High@L4.1
Параметр CABAC формата : Да
Параметр ReFrames формата : 8 кадров
Идентификатор кодека : V_MPEG4/ISO/AVC
Продолжительность : 1 ч. 41 м.
Битрейт : 1274 Кбит/сек
Ширина : 696 пикселей
Высота : 440 пикселей
Соотношение сторон : 2,35:1
Соотношение сторон в оригинале : 2,35:1
Режим частоты кадров : Постоянный
Частота кадров : 25,000 кадров/сек
Цветовое пространство : YUV
Субдискретизация насыщенности : 4:2:0
Битовая глубина : 8 бит
Тип развёртки : Прогрессивная
Бит/(Пиксели*Кадры) : 0.166
Размер потока : 901 Мбайт (60%)
Заголовок : Источник DVD
Библиотека кодирования : x264 core 138 r2356 a1d3d17
Настройки программы : cabac=1 / ref=8 / deblock=1:-2:-1 / analyse=0x3:0x113 / me=umh / subme=10 / psy=1 / psy_rd=1.00:0.05 / mixed_ref=1 / me_range=32 / chroma_me=1 / trellis=2 / 8x8dct=1 / cqm=0 / deadzone=21,11 / fast_pskip=0 / chroma_qp_offset=-3 / threads=6 / lookahead_threads=1 / sliced_threads=0 / nr=0 / decimate=0 / interlaced=0 / bluray_compat=0 / constrained_intra=0 / bframes=8 / b_pyramid=2 / b_adapt=2 / b_bias=0 / direct=3 / weightb=1 / open_gop=0 / weightp=2 / keyint=250 / keyint_min=25 / scenecut=40 / intra_refresh=0 / rc=2pass / mbtree=0 / bitrate=1274 / ratetol=1.0 / qcomp=0.60 / qpmin=0 / qpmax=69 / qpstep=4 / cplxblur=20.0 / qblur=0.5 / ip_ratio=1.40 / pb_ratio=1.30 / aq=1:1.00
Язык : English
Default : Да
Forced : Нет

Аудио #1
Идентификатор : 2
Формат : AC-3
Формат/Информация : Audio Coding 3
Расширение режима : CM (complete main)
Параметр Endianness формата : Big
Идентификатор кодека : A_AC3
Продолжительность : 1 ч. 41 м.
Вид битрейта : Постоянный
Битрейт : 384 Кбит/сек
Каналы : 6 каналов
Расположение каналов : Front: L C R, Side: L R, LFE
Частота : 48,0 КГц
Битовая глубина : 16 бит
Метод сжатия : С потерями
Размер потока : 280 Мбайт (19%)
Заголовок : Источник DVD Dolby Digital 5,1 384kb MVO
Язык : Russian
Default : Да
Forced : Нет

Аудио #2
Идентификатор : 3
Формат : AC-3
Формат/Информация : Audio Coding 3
Расширение режима : CM (complete main)
Параметр Endianness формата : Big
Идентификатор кодека : A_AC3
Продолжительность : 1 ч. 41 м.
Вид битрейта : Постоянный
Битрейт : 384 Кбит/сек
Каналы : 6 каналов
Расположение каналов : Front: L C R, Side: L R, LFE
Частота : 48,0 КГц
Битовая глубина : 16 бит
Метод сжатия : С потерями
Размер потока : 280 Мбайт (19%)
Заголовок : Источник DVD Dolby Digital 5,1 384kb
Язык : English
Default : Нет
Forced : Нет



Скачать Детектор.лжи.Deceiver.(Джонас.Пэйт.Джош.Пэйт).[1997.триллер.драма.криминал.детектив.DVDRip-AVC].[MVO]+[Оригинал].torrent без регистрации
Золото ЗОЛОТАЯ РАЗДАЧА! СКАЧАННОЕ НЕ ЗАСЧИТЫВАЕТСЯ! Золото
Дата: Зарегистрирован   [ Тип: внешний ] Как тут cкачать?
MAGNET ссылка
MAGNET ссылка


Скачать .torrent

15 KB

Статус: проверено DHT
Скачан: торрент - 114 раз, раздача полностью - 31 раз
Размер: 1,46 GB
Оценка:  5 (Голосов: 1)
Поблагодарили: 3
Поделиться ссылкой на эту раздачу с друзьями:
В контактеFacebookОдноклассникиTwitterLivejournalМой МирLiveinternet
 

 
Показать сообщения:    


Вы не можете начинать темы
Вы не можете отвечать на сообщения
Вы не можете редактировать свои сообщения
Вы не можете удалять свои сообщения
Вы не можете голосовать в опросах
Вы не можете прикреплять файлы к сообщениям
Вы можете скачивать файлы