Loading...
Error

Скачать Ночь на Земле / Night on Earth (Джим Джармуш) [1991, мелодрама, комедия, DVDRip] [VO]+[Оригинал] торрент без регистрации

 
Статистика раздачи
Размер:  1,46 GB   |    Скачан:  105 раз
Сидов:  1  [  0 KB/s  ]  
 
Автор Сообщение

Marsianka

[] 

Информация о фильме
Название: Ночь на Земле
Оригинальное название: Night on Earth
Год выхода: 1991
Жанр: мелодрама, комедия
Режиссер: Джим Джармуш (Jim Jarmusch)
В ролях: Джина Роулэндс, Роберто Бениньи, Армин Мюллер-Шталь, Вайнона Райдер, Джанкарло Эспозито, Рози Перес, Беатрис Даль, Исаак Де Банколе, Паоло Боначелли, Матти Пелонпяя

О фильме:
Отстранённые, словно подсмотренные из космоса пять таксистских историй, грустных и комедийных, случившихся за одну ночь в пяти мегаполисах мира. Каждая имеет свою особенную тему, свойственную месту действия. Так, что такое карьера, выясняется в сердце американской мечты Лос-Анджелесе.

Встреча Старого Света с Новым происходит, конечно же, в бурлящем котле Нью-Йорка. О зрении и слепоте лучше всего знают в столице мировой красоты Париже, а вопросы жизни и смерти — в вечном городе Риме. И, наконец, тема заброшенности человека в этот мир нигде не выглядит более убедительно, чем на заснеженных просторах Хельсинки.


General
Format : Matroska
File size : 1.46 GiB
Duration : 2h 2mn
Overall bit rate : 1 698 Kbps
Movie name : Night on Earth
Encoded date : UTC 2009-03-23 12:09:56
Writing application : mkvmerge v2.4.1 ('Use Me') built on Dec 5 2008 18:30:05
Writing library : libebml v0.7.7 + libmatroska v0.8.1

Video
ID : 1
Format : AVC
Format/Info : Advanced Video Codec
Format profile : High@L3.1
Format settings, CABAC : Yes
Format settings, ReFrames : 6 frames
Muxing mode : Container profile=Unknown@3.1
Codec ID : V_MPEG4/ISO/AVC
Duration : 2h 2mn
Bit rate : 1 280 Kbps
Nominal bit rate : 1 310 Kbps
Width : 720 pixels
Height : 416 pixels
Display aspect ratio : 16:9
Frame rate : 25.000 fps
Resolution : 8 bits
Colorimetry : 4:2:0
Scan type : Progressive
Bits/(Pixel*Frame) : 0.171
Stream size : 1.10 GiB (75%)
Title : x264 High@L3.1, 1310 Kbps (Softcode Video)
Writing library : x264 core 67 r1128M 682b54d
Encoding settings : cabac=1 / ref=6 / deblock=1:-1:-1 / analyse=0x3:0x133 / me=umh / subme=9 / psy_rd=1.0:0.0 / mixed_ref=1 / me_range=16 / chroma_me=1 / trellis=2 / 8x8dct=1 / cqm=0 / deadzone=21,11 / chroma_qp_offset=-2 / threads=3 / nr=0 / decimate=0 / mbaff=0 / bframes=3 / b_pyramid=1 / b_adapt=2 / b_bias=0 / direct=3 / wpredb=1 / keyint=250 / keyint_min=25 / scenecut=40 / rc=2pass / bitrate=1310 / ratetol=1.0 / qcomp=0.60 / qpmin=10 / qpmax=51 / qpstep=4 / cplxblur=20.0 / qblur=0.5 / ip_ratio=1.40 / pb_ratio=1.30 / aq=1:1.00

Audio #1
ID : 2
Format : AC-3
Format/Info : Audio Coding 3
Codec ID : A_AC3
Duration : 2h 2mn
Bit rate mode : Constant
Bit rate : 192 Kbps
Channel(s) : 3 channels
Channel positions : L R, LFE
Sampling rate : 48.0 KHz
Stream size : 169 MiB (11%)
Title : MVO, AC3 2.0ch, 192 Kbps
Language : Russian

Audio #2
ID : 3
Format : AC-3
Format/Info : Audio Coding 3
Codec ID : A_AC3
Duration : 2h 2mn
Bit rate mode : Constant
Bit rate : 192 Kbps
Channel(s) : 3 channels
Channel positions : L R, LFE
Sampling rate : 48.0 KHz
Stream size : 169 MiB (11%)
Title : AC3 2.0ch, 192 Kbps
Language : English

Text
ID : 4
Format : UTF-8
Codec ID : S_TEXT/UTF8
Codec ID/Info : UTF-8 Plain Text
Title : SRT Subtitles
Language : Russian
Страна: Германия, США, Франция, Япония, Великобритания
Студия: Victor Company of Japan (JVC)
Продолжительность: 02:02:43
Перевод: Закадровый, профессиональный
Оригинал

Файл
Кодек: MKV
Качество: DVDRip
Видео: 720х416; 25.000 fps; 1 280 Kbps

Семпл
AC-3;192 Kbps; 3 channels (Rus)
AC-3;192 Kbps; 3 channels (Eng)



Скачать Ночь.на.Земле.Night.on.Earth.(Джим.Джармуш).[1991.мелодрама.комедия.DVDRip].[VO]+[Оригинал].torrent без регистрации
Золото ЗОЛОТАЯ РАЗДАЧА! СКАЧАННОЕ НЕ ЗАСЧИТЫВАЕТСЯ! Золото
Дата: Зарегистрирован   [ Тип: внутренний ] Как тут cкачать?
MAGNET ссылка
MAGNET ссылка


Скачать .torrent

15 KB

Статус: проверено DHT
Скачан: торрент - 105 раз, раздача полностью - 12 раз
Размер: 1,46 GB
Оценка:  - (Голосов: 0)
Поблагодарили: 0
Поделиться ссылкой на эту раздачу с друзьями:
В контактеFacebookОдноклассникиTwitterLivejournalМой МирLiveinternet
 

 
Показать сообщения:    


Вы не можете начинать темы
Вы не можете отвечать на сообщения
Вы не можете редактировать свои сообщения
Вы не можете удалять свои сообщения
Вы не можете голосовать в опросах
Вы не можете прикреплять файлы к сообщениям
Вы можете скачивать файлы