Loading...
Error

Скачать Без гроша в Беверли Хиллз / Down and Out in Beverly Hills (Пол Мазурски) [1986, комедия, WEB-DLRip] [MVO] торрент без регистрации

 
Статистика раздачи
Размер:  1,46 GB   |    Скачан:  92 раза
Сидов:  1  [  0 KB/s  ]  
 
Автор Сообщение

Marsianka

[] 

Информация о фильме
Название: Без гроша в Беверли Хиллз
Оригинальное название: Down and Out in Beverly Hills
Год выхода: 1986
Жанр: комедия
Режиссер: Пол Мазурски
В ролях: Ник Нолти, Бетт Мидлер, Ричард Дрейфусс, Литтл Ричард, Трейси Нельсон, Элизабет Пенья, Эван Ричардс, Майк Дог, Доналд Ф. Мюик, Пол Мазурски

О фильме:
Иногда богатые тоже смеются. Жизнь миллионера Дэйва Уайтмэна похожа на сумасшедший дом: его жена занята только йогой и аэробикой, сын вступил в критический возраст, а дочь страдает от систематического переедания.

Но ироничной судьбе этого показалось мало: однажды Дэйв выловил в своем роскошном бассейне несчастного бродягу и взял его к себе в дом. Однако у этого нищего вдруг обнаружилась такая богатая фантазия и жажда деятельности, что через некоторое время семью Уайтмэнов стало просто не узнать!




Страна: США
Продолжительность: 01:42:20
Перевод: Профессиональный (многоголосый закадровый), |iTunes Russia|

Файл
Кодек: XviD
Качество: WEB-DLRip
Видео: 704x384, 23,976 fps, 1823 kbps
Звук: AC-3, 2 ch, 192 kbps, 48.00 Khz
Общее
Полное имя : Down.and.Out.in.Beverly.Hills.1986.WEB-DLRip.avi
Формат : AVI
Формат/Информация : Audio Video Interleave
Размер файла : 1,46 Гбайт
Продолжительность : 1 ч. 43 м.
Общий поток : 2024 Кбит/сек
Программа кодирования : VirtualDubMod 1.5.10.3 | www.virtualdub-fr.org || (build 2550/release)
Библиотека кодирования : VirtualDubMod build 2550/release

Видео
Идентификатор : 0
Формат : MPEG-4 Visual
Профиль формата : Advanced Simple@L5
Параметр BVOP формата : 1
Параметр QPel формата : Нет
Параметр GMC формата : Без точки перехода
Параметр матрицы формата : Выборочная
Идентификатор кодека : XVID
Идентификатор кодека/Подсказка : XviD
Продолжительность : 1 ч. 43 м.
Битрейт : 1823 Кбит/сек
Ширина : 704 пикс.
Высота : 384 пикс.
Соотношение сторон : 16:9
Частота кадров : 23,976 кадр/сек
Цветовое пространство : YUV
Подвыборка цветности : 4:2:0
Битовая глубина : 8 бит
Тип развёртки : Прогрессивная
Метод сжатия : С потерями
Бит/(Пиксели*Кадры) : 0.281
Размер потока : 1,32 Гбайт (90%)
Библиотека кодирования : XviD 73

Аудио
Идентификатор : 1
Формат : AC-3
Формат/Информация : Audio Coding 3
Расширение режима : CM (complete main)
Идентификатор кодека : 2000
Продолжительность : 1 ч. 43 м.
Вид битрейта : Постоянный
Битрейт : 192 Кбит/сек
Канал(ы) : 2 канала(ов)
Расположение каналов : Front: L R
Частота : 48,0 КГц
Битовая глубина : 16 бит
Метод сжатия : С потерями
Размер потока : 142 Мбайт (9%)
Выравнивание : Разделение по промежуткам
Продолжительность промежутка : 42 мс. (1,00 видеокадр)
Время предзагрузки промежутка : 500 ms
Релиз от: Leon-masl



Скачать Без.гроша.в.Беверли.Хиллз.Down.and.Out.in.Beverly.Hills.(Пол.Мазурски).[1986.комедия.WEB-DLRip].[MVO].torrent без регистрации
Золото ЗОЛОТАЯ РАЗДАЧА! СКАЧАННОЕ НЕ ЗАСЧИТЫВАЕТСЯ! Золото
Дата: Зарегистрирован   [ Тип: внутренний ] Как тут cкачать?
MAGNET ссылка
MAGNET ссылка


Скачать .torrent

15 KB

Статус: проверено DHT
Скачан: торрент - 92 раз, раздача полностью - 3 раз
Размер: 1,46 GB
Оценка:  - (Голосов: 0)
Поблагодарили: 0
Поделиться ссылкой на эту раздачу с друзьями:
В контактеFacebookОдноклассникиTwitterLivejournalМой МирLiveinternet
 

 
Показать сообщения:    


Вы не можете начинать темы
Вы не можете отвечать на сообщения
Вы не можете редактировать свои сообщения
Вы не можете удалять свои сообщения
Вы не можете голосовать в опросах
Вы не можете прикреплять файлы к сообщениям
Вы можете скачивать файлы