Loading...
Error

Скачать Машина медового месяца / The Honeymoon Machine (Ричард Торп / Richard Thorpe) [1961, комедия, мелодрама, DVDRip] [Remastered] [AVO] (Ю. Сербин) торрент без регистрации

 
Статистика раздачи
Размер:  795 MB   |    Скачан:  92 раза
Сидов:  1  [  0 KB/s  ]  
 
Автор Сообщение

leon030982

[] 

Машина медового месяца / The Honeymoon Machine




Год выпуска: 1961
Страна: США
Студия: Metro-Goldwyn-Mayer (MGM)
Жанр: комедия, мелодрама
Продолжительность: 01:26:57
Перевод: Авторский (одноголосый, закадровый)[Юрий Сербин]
Ориг. аудиодорожка: английский

Режиссер: Ричард Торп / Richard Thorpe

В ролях: Стив Маккуин /Steve McQueen/, Бриджид Базлен /Brigid Bazlen/, Джим Хаттон /Jim Hutton/, Пола Прентисс /Paula Prentiss/, Дин Джэггер /Dean Jagger/

Описание: Военно-морскому офицеру приходит в голову идея использовать электронный мозг своего судна для того, чтобы переиграть колесо рулетки в казино Венеции. Развлекательная комедия, в которой неплохо показали себя молодые тогда актеры…


Качество: DVDRip [исх. DVD5 (Custom)]
Формат: AVI
Видео кодек: XvID
Аудио кодек: MP3
Видео: 704x368 (1.91:1), 23.976 fps, XviD build 64 ~998 kbps avg, 0.16 bit/pixel
Аудио #1: 48 kHz, MPEG Layer 3, 2 ch, ~128.00 kbps avg [AVO]
Аудио #2: 48 kHz, MPEG Layer 3, 2 ch, ~128.00 kbps avg [ENG]

Огромное спасибо всем кто профинансировал перевод данного фильма!!!
c рутрекера:
denis_mgn_1987, Alec Storm, atomic dragonfly, ochkarik1, Aleks Punk, zeleniydzhan, SamsonSS, sever-, jasenka, Kampfer161
с клуба е180: xerman13, foxlight, Nadoelo, motel, luka69, chontvari, jorn2, Guyver
За перевод и озвучку спасибо - Юрию Сербину
За реавторинг диска спасибо - Нордер
За оригинальный двд спасибо - DmanJ
General
Complete name : F:\The Honeymoon Machine_DVDRip.1961.[AVO](SERBIN)_L.avi
Format : AVI
Format/Info : Audio Video Interleave
File size : 795 MiB
Duration : 1h 27mn
Overall bit rate : 1 277 Kbps
Writing application : XviD4PSP 6.0 / 54.29.105

Video
ID : 0
Format : MPEG-4 Visual
Format profile : Simple@L3
Format settings, BVOP : No
Format settings, QPel : No
Format settings, GMC : No warppoints
Format settings, Matrix : Default (H.263)
Codec ID : XVID
Codec ID/Hint : XviD
Duration : 1h 27mn
Bit rate : 1 000 Kbps
Width : 704 pixels
Height : 368 pixels
Display aspect ratio : 2.25:1
Frame rate : 23.976 fps
Color space : YUV
Chroma subsampling : 4:2:0
Bit depth : 8 bits
Scan type : Progressive
Compression mode : Lossy
Bits/(Pixel*Frame) : 0.161
Stream size : 623 MiB (78%)
Writing library : XviD 64

Audio #1
ID : 1
Format : MPEG Audio
Format version : Version 1
Format profile : Layer 3
Mode : Joint stereo
Mode extension : MS Stereo
Codec ID : 55
Codec ID/Hint : MP3
Duration : 1h 27mn
Bit rate mode : Constant
Bit rate : 128 Kbps
Channel(s) : 2 channels
Sampling rate : 48.0 KHz
Compression mode : Lossy
Stream size : 79.7 MiB (10%)
Alignment : Aligned on interleaves
Interleave, duration : 24 ms (0.58 video frame)
Writing library : LAME´Þ`À

Audio #2
ID : 2
Format : MPEG Audio
Format version : Version 1
Format profile : Layer 3
Mode : Joint stereo
Mode extension : MS Stereo
Codec ID : 55
Codec ID/Hint : MP3
Duration : 1h 27mn
Bit rate mode : Constant
Bit rate : 128 Kbps
Channel(s) : 2 channels
Sampling rate : 48.0 KHz
Compression mode : Lossy
Stream size : 79.7 MiB (10%)
Alignment : Aligned on interleaves
Interleave, duration : 24 ms (0.58 video frame)
Writing library : LAME3.99.4



Скачать Машина.медового.месяца.The.Honeymoon.Machine.(Ричард.Торп.Richard.Thorpe).[1961.комедия.мелодрама.DVDRip].[Remastered].[AVO].(Ю.Сербин).torrent без регистрации
Золото ЗОЛОТАЯ РАЗДАЧА! СКАЧАННОЕ НЕ ЗАСЧИТЫВАЕТСЯ! Золото
Дата: Зарегистрирован   [ Тип: внутренний ] Как тут cкачать?
MAGNET ссылка
MAGNET ссылка


Скачать .torrent

16 KB

Статус: проверено DHT
Скачан: торрент - 92 раз, раздача полностью - 3 раз
Размер: 795 MB
Оценка:  5 (Голосов: 1)
Поблагодарили: 0
Поделиться ссылкой на эту раздачу с друзьями:
В контактеFacebookОдноклассникиTwitterLivejournalМой МирLiveinternet
 

 
Показать сообщения:    


Вы не можете начинать темы
Вы не можете отвечать на сообщения
Вы не можете редактировать свои сообщения
Вы не можете удалять свои сообщения
Вы не можете голосовать в опросах
Вы не можете прикреплять файлы к сообщениям
Вы можете скачивать файлы