Loading...
Error

Скачать Робинзон Крузо / Robinson Crusoe (Род Харди, Джордж Миллер) [1997, драма, приключения, DVDRip] [MVO]+[Оригинал]+[Sub] торрент без регистрации

 
Статистика раздачи
Размер:  1,46 GB   |    Скачан:  131 раз
Сидов:  1  [  0 KB/s  ]  
 
Автор Сообщение

Marsianka

[] 

Страна: США
Производство: Miramax Films, RHI Entertainment Inc.

Жанр: драма, приключения
Год выпуска: 1997
Продолжительность: 01:27:01

Перевод: Профессиональный (многоголосый закадровый)
Оригинальная аудиодорожка: английский
Cубтитры: русский

Режиссер: Род Харди / Rod Hardy, Джордж Миллер / George Miller

В ролях:
Пирс Броснан, Уильям Такаку, Полли Уолкер, Йен Харт, Джеймс Фрейн, Дамиан Льюис, Бен Робертсон, Тим МакМулиан, Мартин Грэйс, Шон Броснан...

Описание:
По роману «Жизнь и приключения Робинзона Крузо» Дэниэля Дефо. Открывается фильм сценой дуэли на шпагах, из-за которой Робинзону Крузо и пришлось стать моряком и отправиться на встречу со своей судьбой…

Исходник: DVD5 R5
Тип релиза: DVDRip
Контейнер: AVI

Видео: 704x384 (1,85:1), 25,000 fps, XviD ~ 1490 kbps avg, 0.220 bit/pixel
Аудио: 48 kHz, Dolby Digital AC3 5.1, 448 kbps MVO
Аудио: 48 kHz, Dolby Digital AC3 5.1, 448 kbps Английский
Субтитры: SoftSub (srt)
Раздача от:

Общее
Полное имя : Robinzon.Kruzo.1997.DVDRip_[New-team]_by_AVP_Studio.avi
Формат : AVI
Формат/Информация : Audio Video Interleave
Размер файла : 1,46 Гбайт
Продолжительность : 1 ч. 27 м.
Общий поток : 2400 Кбит/сек
Программа кодирования : VirtualDubModRus 1.5.10.2 (build 2542/release)
Библиотека кодирования : VirtualDubMod build 2542/release

Видео
Идентификатор : 0
Формат : MPEG-4 Visual
Профиль формата : Advanced Simple@L5
Параметр BVOP формата : 1
Параметр QPel формата : Нет
Параметр GMC формата : Без точки перехода
Параметр матрицы формата : Выборочная
Идентификатор кодека : XVID
Идентификатор кодека/Подсказка : XviD
Продолжительность : 1 ч. 27 м.
Битрейт : 1490 Кбит/сек
Ширина : 704 пикселя
Высота : 384 пикселя
Соотношение сторон : 1,85:1
Частота кадров : 25,000 кадров/сек
Цветовое пространство : YUV
Субдискретизация насыщенности : 4:2:0
Битовая глубина : 8 бит
Тип развёртки : Прогрессивная
Метод сжатия : С потерями
Бит/(Пиксели*Кадры) : 0.220
Размер потока : 927 Мбайт (62%)
Библиотека кодирования : XviD 73

Аудио #1
Идентификатор : 1
Формат : AC-3
Формат/Информация : Audio Coding 3
Расширение режима : CM (complete main)
Параметр Endianness формата : Big
Идентификатор кодека : 2000
Продолжительность : 1 ч. 27 м.
Вид битрейта : Постоянный
Битрейт : 448 Кбит/сек
Каналы : 6 каналов
Расположение каналов : Front: L C R, Side: L R, LFE
Частота : 48,0 КГц
Битовая глубина : 16 бит
Метод сжатия : С потерями
Размер потока : 279 Мбайт (19%)
Выравнивание : Разделение по промежуткам
Продолжительность промежутка : 40 мс. (1,00 видеокадр)
Время предзагрузки промежутка : 500 мс.

Аудио #2
Идентификатор : 2
Формат : AC-3
Формат/Информация : Audio Coding 3
Расширение режима : CM (complete main)
Параметр Endianness формата : Big
Идентификатор кодека : 2000
Продолжительность : 1 ч. 27 м.
Вид битрейта : Постоянный
Битрейт : 448 Кбит/сек
Каналы : 6 каналов
Расположение каналов : Front: L C R, Side: L R, LFE
Частота : 48,0 КГц
Битовая глубина : 16 бит
Метод сжатия : С потерями
Размер потока : 279 Мбайт (19%)
Выравнивание : Разделение по промежуткам
Продолжительность промежутка : 40 мс. (1,00 видеокадр)
Время предзагрузки промежутка : 500 мс



Скачать Робинзон.Крузо.Robinson.Crusoe.(Род.Харди.Джордж.Миллер).[1997.драма.приключения.DVDRip].[MVO]+[Оригинал]+[Sub].torrent без регистрации
Золото ЗОЛОТАЯ РАЗДАЧА! СКАЧАННОЕ НЕ ЗАСЧИТЫВАЕТСЯ! Золото
Дата: Зарегистрирован   [ Тип: внутренний ] Как тут cкачать?
MAGNET ссылка
MAGNET ссылка


Скачать .torrent

16 KB

Статус: проверено DHT
Скачан: торрент - 131 раз, раздача полностью - 82 раз
Размер: 1,46 GB
Оценка:  5 (Голосов: 1)
Поблагодарили: 2
Поделиться ссылкой на эту раздачу с друзьями:
В контактеFacebookОдноклассникиTwitterLivejournalМой МирLiveinternet
 

 
Показать сообщения:    


Вы не можете начинать темы
Вы не можете отвечать на сообщения
Вы не можете редактировать свои сообщения
Вы не можете удалять свои сообщения
Вы не можете голосовать в опросах
Вы не можете прикреплять файлы к сообщениям
Вы можете скачивать файлы