Loading...
Error

Скачать Моя девочка не хочет... / Non ma fille, tu n'iras pas danser (Кристоф Оноре) [2009, драма, DVDRip-AVC] [MVO]+[Sub] торрент без регистрации

 
Статистика раздачи
Размер:  1,91 GB   |    Скачан:  130 раз
Сидов:  1  [  0 KB/s  ]  
 
Автор Сообщение

Marsianka

[] 

Информация о фильме
Название: Моя девочка не хочет...
Оригинальное название: Non ma fille, tu n'iras pas danser
Год выхода: 2009
Жанр: драма
Режиссер: Кристоф Оноре / Christophe Honoré
В ролях: Кьяра Мастроянни, Марина Фоис, Мари-Кристин Барро, Жан-Марк Барр, Фред Улиссе, Луи Гаррель, Марсиаль Ди Фондзо Бо, Алис Бюто, Жюльен Оноре, Каролин Сиоль

О фильме:
После развода с мужем Лена сама решает все проблемы, которые жизнь подбрасывает ей и двум ее детям. Она упорно преодолевает все трудности. Ей уже кажется, что она в состоянии справиться с любыми бедами. Но… только не с родной семейкой! Неутомимые родители, сестрица, братец и прочие родственники твердо решили, несмотря на ее отчаянное сопротивление, сделать Лену счастливой. Такого «счастья» она уже не перенесет…




Страна: Франция
Студия: Why Not Productions, France 3 Cinéma, Le Pacte
Продолжительность: 01:47:59.488
Перевод: Профессиональный (многоголосый закадровый) Селена Интернэшнл

Файл
Кодек: h.264
Качество: DVDRip-AVC
Видео: 720x464 (1.85:1) @ 854x464, 23.976 fps, AVC, ~2143 Kbps, 0.268 bits/pixel
Русский, 48.0 KHz, AC3, 1 ch, 192 Kbps
Французский, 48.0 KHz, AC3, 2 ch, 192 Kbps
Субтитры: Английские, VobSub
Общее
Уникальный идентификатор : 186636766191750684664459957383200519643 (0x8C68EF053570899C87B3F678DA5C35DB)
Полное имя : H:FilmsMoya_devotchka_ne_hochet.2009.DVDRip-AVC.mkv
Формат : Matroska
Версия формата : Version 4 / Version 2
Размер файла : 1,91 Гбайт
Продолжительность : 1 ч. 47 м.
Общий поток : 2530 Кбит/сек
Дата кодирования : UTC 2014-06-12 18:01:52
Программа кодирования : mkvmerge v7.0.0 ('Where We Going') 64bit built on Jun 9 2014 15:16:27
Библиотека кодирования : libebml v1.3.0 + libmatroska v1.4.1
DURATION : 01:44:11.072000000
NUMBER_OF_FRAMES : 1147
NUMBER_OF_BYTES : 1156931
_STATISTICS_WRITING_APP : mkvmerge v7.0.0 ('Where We Going') 64bit built on Jun 9 2014 15:16:27
_STATISTICS_WRITING_DATE_UTC : 2014-06-12 18:01:52
_STATISTICS_TAGS : BPS DURATION NUMBER_OF_FRAMES NUMBER_OF_BYTES

Видео
Идентификатор : 1
Формат : AVC
Формат/Информация : Advanced Video Codec
Профиль формата : High@L4.1
Параметр CABAC формата : Да
Параметр ReFrames формата : 16 кадров
Идентификатор кодека : V_MPEG4/ISO/AVC
Продолжительность : 1 ч. 47 м.
Битрейт : 2143 Кбит/сек
Ширина : 720 пикселей
Высота : 464 пикселя
Соотношение сторон : 1,85:1
Соотношение сторон в оригинале : 1,85:1
Режим частоты кадров : Постоянный
Частота кадров : 23,976 кадра/сек
Цветовое пространство : YUV
Субдискретизация насыщенности : 4:2:0
Битовая глубина : 8 бит
Тип развёртки : Прогрессивная
Бит/(Пиксели*Кадры) : 0.268
Размер потока : 1,58 Гбайт (83%)
Библиотека кодирования : x264 core 138 r2358 9e941d1
Настройки программы : cabac=1 / ref=16 / deblock=1:0:0 / analyse=0x3:0x133 / me=umh / subme=10 / psy=1 / psy_rd=1.10:0.10 / mixed_ref=1 / me_range=32 / chroma_me=1 / trellis=2 / 8x8dct=1 / cqm=0 / deadzone=21,11 / fast_pskip=0 / chroma_qp_offset=-3 / threads=8 / lookahead_threads=2 / sliced_threads=0 / nr=0 / decimate=0 / interlaced=0 / bluray_compat=0 / constrained_intra=0 / bframes=10 / b_pyramid=2 / b_adapt=2 / b_bias=0 / direct=3 / weightb=1 / open_gop=0 / weightp=2 / keyint=240 / keyint_min=23 / scenecut=60 / intra_refresh=0 / rc_lookahead=60 / rc=2pass / mbtree=0 / bitrate=2143 / ratetol=1.0 / qcomp=0.60 / qpmin=0 / qpmax=69 / qpstep=4 / cplxblur=20.0 / qblur=0.5 / vbv_maxrate=50000 / vbv_bufsize=62500 / nal_hrd=none / ip_ratio=1.40 / pb_ratio=1.30 / aq=1:1.00
Default : Нет
Forced : Нет
Коэффициенты матрицы : BT.601
DURATION : 01:47:59.473000000
NUMBER_OF_FRAMES : 155352
NUMBER_OF_BYTES : 1735413407
_STATISTICS_WRITING_APP : mkvmerge v7.0.0 ('Where We Going') 64bit built on Jun 9 2014 15:16:27
_STATISTICS_WRITING_DATE_UTC : 2014-06-12 18:01:52
_STATISTICS_TAGS : BPS DURATION NUMBER_OF_FRAMES NUMBER_OF_BYTES

Аудио #1
Идентификатор : 2
Формат : AC-3
Формат/Информация : Audio Coding 3
Расширение режима : CM (complete main)
Параметр Endianness формата : Big
Идентификатор кодека : A_AC3
Продолжительность : 1 ч. 47 м.
Вид битрейта : Постоянный
Битрейт : 192 Кбит/сек
Каналы : 1 канал
Расположение каналов : Front: C
Частота : 48,0 КГц
Битовая глубина : 16 бит
Метод сжатия : С потерями
Размер потока : 148 Мбайт (8%)
Язык : Russian
Default : Да
Forced : Нет

Аудио #2
Идентификатор : 3
Формат : AC-3
Формат/Информация : Audio Coding 3
Расширение режима : CM (complete main)
Параметр Endianness формата : Big
Идентификатор кодека : A_AC3
Продолжительность : 1 ч. 47 м.
Вид битрейта : Постоянный
Битрейт : 192 Кбит/сек
Каналы : 2 канала
Расположение каналов : Front: L R
Частота : 48,0 КГц
Битовая глубина : 16 бит
Метод сжатия : С потерями
Размер потока : 148 Мбайт (8%)
Язык : French
Default : Нет
Forced : Нет

Текст
Идентификатор : 4
Формат : VobSub
Режим смешивания : zlib
Идентификатор кодека : S_VOBSUB
Идентификатор кодека/Информация : The same subtitle format used on DVDs
Язык : English
Default : Нет
Forced : Нет

Меню
00:00:00.000 : en:Chapter 01
00:08:14.000 : en:Chapter 02
00:17:30.834 : en:Chapter 03
00:26:52.867 : en:Chapter 04
00:35:26.801 : en:Chapter 05
00:44:12.868 : en:Chapter 06
00:53:49.868 : en:Chapter 07
01:03:34.001 : en:Chapter 08
01:13:38.068 : en:Chapter 09
01:22:38.002 : en:Chapter 10
01:32:25.169 : en:Chapter 11
01:39:55.836 : en:Chapter 12
Исходник R1 Релиз от: Temperest



Скачать Моя.девочка.не.хочет.Non.ma.fille.tu.n'iras.pas.danser.(Кристоф.Оноре).[2009.драма.DVDRip-AVC].[MVO]+[Sub].torrent без регистрации
Золото ЗОЛОТАЯ РАЗДАЧА! СКАЧАННОЕ НЕ ЗАСЧИТЫВАЕТСЯ! Золото
Дата: Зарегистрирован   [ Тип: внутренний ] Как тут cкачать?
MAGNET ссылка
MAGNET ссылка


Скачать .torrent

20 KB

Статус: проверено DHT
Скачан: торрент - 130 раз, раздача полностью - 2 раз
Размер: 1,91 GB
Оценка:  - (Голосов: 0)
Поблагодарили: 1
Поделиться ссылкой на эту раздачу с друзьями:
В контактеFacebookОдноклассникиTwitterLivejournalМой МирLiveinternet
 

 
Показать сообщения:    


Вы не можете начинать темы
Вы не можете отвечать на сообщения
Вы не можете редактировать свои сообщения
Вы не можете удалять свои сообщения
Вы не можете голосовать в опросах
Вы не можете прикреплять файлы к сообщениям
Вы можете скачивать файлы