Loading...
Error

Скачать Ставки сделаны / Rien ne va plus [1997, криминальная комедия, DVDRip-AVC] [MVO]+[Sub] торрент без регистрации

 
Статистика раздачи
Размер:  1,72 GB   |    Скачан:  119 раз

Полного источника не было: 22 минуты

 
Автор Сообщение

Marsianka

[] 

Информация о фильме
Название: Ставки сделаны
Оригинальное название: Rien ne va plus
Год выхода: 1997
Жанр: криминальная комедия
Режиссер: Клод Шаброль / Claude Chabrol
В ролях: Изабель Юппер, Мишель Серро, Франсуа Клюзе, Жан-Франсуа Бальме, Жакки Берруайе, Жан Бенгиги, Мони Дальмес, Тома Шаброль, Грег Жермен, Натали Кузнецофф

О фильме:
Симпатичная женщина Бетти (Юппер) и пожилой мужчина Виктор (Серро) занимаются мелким мошенничеством. Бетти находит в ресторане или отеле подходящего клиента, соблазняет его, подсыпает снотворное, и затем партнеры изымают часть денег, ровно столько, чтобы обманутый, как правило семейный, не стал обращаться в полицию. В один прекрасный день Бетти сообщает Виктору, что нашла жирный кусок - курьера, перевозящего крупные суммы денег для наркомафии. Игра пошла по крупному - на кону 5 миллионов швейцарских марок, но и риск велик... Увлекательная картина снята в очень красивых местах, в заснеженных горах Швейцарии. (Иванов М.)




Страна: Франция, Швейцария
Студия: MK2 Productions, TF1 Films Production, CAB Productions
Продолжительность: 01:41:09.760
Перевод: Профессиональный (многоголосый закадровый)

Файл
Кодек: h.264
Качество: DVDRip-AVC
Видео: 640x560 (1.614) @ 904x560, 25.000 fps, AVC, ~2076 Kbps, 0.232 bits/pixel
Русский, 48.0 KHz, AC3, 1 ch, 160 Kbps
Французский, 48.0 KHz, AC3, 2 ch, 192 Kbps
Субтитры: Английские, VobSub
бщее
Уникальный идентификатор : 176474128292392117839516367487926928758 (0x84C3AE497C3680FA8AC0A5B2134E0576)
Полное имя : H:FilmsStavki_sdelani.1997.DVDRip-AVC.mkv
Формат : Matroska
Версия формата : Version 4 / Version 2
Размер файла : 1,72 Гбайт
Продолжительность : 1 ч. 41 м.
Общий поток : 2432 Кбит/сек
Дата кодирования : UTC 2014-06-13 08:28:45
Программа кодирования : mkvmerge v7.0.0 ('Where We Going') 64bit built on Jun 9 2014 15:16:27
Библиотека кодирования : libebml v1.3.0 + libmatroska v1.4.1
_STATISTICS_WRITING_APP : mkvmerge v7.0.0 ('Where We Going') 64bit built on Jun 9 2014 15:16:27
_STATISTICS_WRITING_DATE_UTC : 2014-06-13 08:28:45
_STATISTICS_TAGS : BPS DURATION NUMBER_OF_FRAMES NUMBER_OF_BYTES
DURATION : 01:35:40.151000000
NUMBER_OF_FRAMES : 917
NUMBER_OF_BYTES : 1159003

Видео
Идентификатор : 1
Формат : AVC
Формат/Информация : Advanced Video Codec
Профиль формата : High@L4.1
Параметр CABAC формата : Да
Параметр ReFrames формата : 16 кадров
Идентификатор кодека : V_MPEG4/ISO/AVC
Продолжительность : 1 ч. 41 м.
Битрейт : 2076 Кбит/сек
Ширина : 640 пикселей
Высота : 560 пикселей
Соотношение сторон : 16:10
Соотношение сторон в оригинале : 16:10
Режим частоты кадров : Постоянный
Частота кадров : 25,000 кадров/сек
Цветовое пространство : YUV
Субдискретизация насыщенности : 4:2:0
Битовая глубина : 8 бит
Тип развёртки : Прогрессивная
Бит/(Пиксели*Кадры) : 0.232
Размер потока : 1,44 Гбайт (84%)
Библиотека кодирования : x264 core 138 r2358 9e941d1
Настройки программы : cabac=1 / ref=16 / deblock=1:0:0 / analyse=0x3:0x133 / me=umh / subme=10 / psy=1 / psy_rd=1.10:0.10 / mixed_ref=1 / me_range=32 / chroma_me=1 / trellis=2 / 8x8dct=1 / cqm=0 / deadzone=21,11 / fast_pskip=0 / chroma_qp_offset=-3 / threads=8 / lookahead_threads=2 / sliced_threads=0 / nr=0 / decimate=0 / interlaced=0 / bluray_compat=0 / constrained_intra=0 / bframes=10 / b_pyramid=2 / b_adapt=2 / b_bias=0 / direct=3 / weightb=1 / open_gop=0 / weightp=2 / keyint=250 / keyint_min=25 / scenecut=60 / intra_refresh=0 / rc_lookahead=60 / rc=2pass / mbtree=0 / bitrate=2076 / ratetol=1.0 / qcomp=0.60 / qpmin=0 / qpmax=69 / qpstep=4 / cplxblur=20.0 / qblur=0.5 / vbv_maxrate=50000 / vbv_bufsize=62500 / nal_hrd=none / ip_ratio=1.40 / pb_ratio=1.30 / aq=1:1.00
Default : Нет
Forced : Нет
Коэффициенты матрицы : BT.601
_STATISTICS_WRITING_APP : mkvmerge v7.0.0 ('Where We Going') 64bit built on Jun 9 2014 15:16:27
_STATISTICS_WRITING_DATE_UTC : 2014-06-13 08:28:45
_STATISTICS_TAGS : BPS DURATION NUMBER_OF_FRAMES NUMBER_OF_BYTES
DURATION : 01:41:09.760000000
NUMBER_OF_FRAMES : 151744
NUMBER_OF_BYTES : 1575136681

Аудио #1
Идентификатор : 2
Формат : AC-3
Формат/Информация : Audio Coding 3
Расширение режима : CM (complete main)
Параметр Endianness формата : Big
Идентификатор кодека : A_AC3
Продолжительность : 1 ч. 41 м.
Вид битрейта : Постоянный
Битрейт : 160 Кбит/сек
Каналы : 1 канал
Расположение каналов : Front: C
Частота : 48,0 КГц
Битовая глубина : 16 бит
Метод сжатия : С потерями
Размер потока : 116 Мбайт (7%)
Язык : Russian
Default : Да
Forced : Нет

Аудио #2
Идентификатор : 3
Формат : AC-3
Формат/Информация : Audio Coding 3
Расширение режима : CM (complete main)
Параметр Endianness формата : Big
Идентификатор кодека : A_AC3
Продолжительность : 1 ч. 41 м.
Вид битрейта : Постоянный
Битрейт : 192 Кбит/сек
Каналы : 2 канала
Расположение каналов : Front: L R
Частота : 48,0 КГц
Битовая глубина : 16 бит
Метод сжатия : С потерями
Размер потока : 139 Мбайт (8%)
Язык : French
Default : Нет
Forced : Нет

Текст
Идентификатор : 4
Формат : VobSub
Режим смешивания : zlib
Идентификатор кодека : S_VOBSUB
Идентификатор кодека/Информация : The same subtitle format used on DVDs
Язык : English
Default : Нет
Forced : Нет

Меню
00:00:00.000 : en:Chapter 01
00:06:26.840 : en:Chapter 02
00:13:10.400 : en:Chapter 03
00:19:16.440 : en:Chapter 04
00:25:40.360 : en:Chapter 05
00:32:48.760 : en:Chapter 06
00:38:11.920 : en:Chapter 07
00:45:37.800 : en:Chapter 08
00:52:05.600 : en:Chapter 09
00:58:53.200 : en:Chapter 10
01:04:49.920 : en:Chapter 11
01:11:32.920 : en:Chapter 12
01:18:15.640 : en:Chapter 13
01:24:32.040 : en:Chapter 14
01:30:29.600 : en:Chapter 15
01:38:56.560 : en:Chapter 16
Исходник R2 MK2 Релиз от: Temperest



Скачать Ставки.сделаны.Rien.ne.va.plus.[1997.криминальная.комедия.DVDRip-AVC].[MVO]+[Sub].torrent без регистрации
Золото ЗОЛОТАЯ РАЗДАЧА! СКАЧАННОЕ НЕ ЗАСЧИТЫВАЕТСЯ! Золото
Дата: Зарегистрирован   [ Тип: внутренний ] Как тут cкачать?
MAGNET ссылка
MAGNET ссылка


Скачать .torrent

18 KB

Статус: проверено DHT
Скачан: торрент - 119 раз, раздача полностью - 3 раз
Размер: 1,72 GB
Оценка:  - (Голосов: 0)
Поблагодарили: 0
Поделиться ссылкой на эту раздачу с друзьями:
В контактеFacebookОдноклассникиTwitterLivejournalМой МирLiveinternet
 

 
Показать сообщения:    


Вы не можете начинать темы
Вы не можете отвечать на сообщения
Вы не можете редактировать свои сообщения
Вы не можете удалять свои сообщения
Вы не можете голосовать в опросах
Вы не можете прикреплять файлы к сообщениям
Вы можете скачивать файлы