Loading...
Error

Скачать Гомер и Эдди / Homer And Eddie (Андрей Кончаловский / Andrey Konchalovskiy) [1989, Комедия, драма, криминал, DVDRip] [AVO] (А.Михалев) торрент без регистрации

 
Статистика раздачи
Размер:  1,37 GB   |    Скачан:  97 раз
Сидов:  1  [  0 KB/s  ]  
 
Автор Сообщение

leon030982

[] 

Гомер и Эдди / Homer And Eddy


Год выпуска: 1989
Страна: США
Жанр: Комедия, драма, криминал
Продолжительность: 01:35:57
Перевод: Авторский (одноголосный, закадровый)[А.Михалев]
Cубтитры: нет

Режиссер: Андрей Кончаловский / Andrey Konchalovskiy

В ролях: Джеймс Белуши, Вупи Голдберг, Джим Мэпп, Джон Уотерз, Роберт Глодини, Джеймс Тил, Джефф Тил, Энди Джэррелл, Энн Рэмси, Микелле Милантони, Мики Джоунс, Энни О’Доннелл, Кэтрин Барресе

Описание: Гомер, добродушный, но психически неполноценный человек с сознанием ребёнка, стремится попасть в дом своего умирающего отца. По дороге он встречает Эдди, смертельно больную и озлобленную женщину, сбежавшую из больницы. Вместе с Гомером они продолжают своё главное в жизни путешествие, в котором им нечего терять…
«Гомер путешествует через Америку и находит себе попутчицу — Эдди. Двое бездомных в огромном мире… Сироты общества, нищие духом. Один верующий, другой атеист. Что-то есть в них и от героев феллиниевской „Дороги“, и от „Очарованного странника“ Лескова. Сценарий показался мне интересным. В нем была какая-то странность, мистический финал — с Христом, точнее, символическим Христом, которого изображает бродячий актёр. Это ещё одна совсем не американская картина, хотя снята в Америке». (Из книги А. Кончаловского «Возвышающий обман», 1999)



Качество: DVDRip
Формат: AVI
Видео кодек: XviD
Аудио кодек: AC3
Видео: 688x512 (1.34:1), 25 fps, XviD build 47 ~1841 kbps avg, 0.21 bit/pixel
Аудио: 48 kHz, AC3 Dolby Digital, 2/0 (L,R) ch, ~192.00 kbps avg
За рип с авторским переводом Михалева благодарим woody_alex с рутрекера
General
Complete name : E:\INTERNET\Homer and Eddie.1989.DVDRip.[AVO] (Михалев)_L.AVI
Format : AVI
Format/Info : Audio Video Interleave
File size : 1.37 GiB
Duration : 1h 35mn
Overall bit rate : 2 040 Kbps
Writing application : VirtualDubMod 1.5.4.1 (build 2178/release)
Writing library : VirtualDubMod build 2178/release

Video
ID : 0
Format : MPEG-4 Visual
Format profile : Advanced Simple@L5
Format settings, BVOP : 1
Format settings, QPel : No
Format settings, GMC : No warppoints
Format settings, Matrix : Custom
Codec ID : XVID
Codec ID/Hint : XviD
Duration : 1h 35mn
Bit rate : 1 841 Kbps
Width : 688 pixels
Height : 512 pixels
Display aspect ratio : 4:3
Frame rate : 25.000 fps
Color space : YUV
Chroma subsampling : 4:2:0
Bit depth : 8 bits
Scan type : Progressive
Compression mode : Lossy
Bits/(Pixel*Frame) : 0.209
Stream size : 1.23 GiB (90%)
Writing library : XviD 1.2.0.dev47 (UTC 2006-11-01)

Audio
ID : 1
Format : AC-3
Format/Info : Audio Coding 3
Mode extension : CM (complete main)
Codec ID : 2000
Duration : 1h 35mn
Bit rate mode : Constant
Bit rate : 192 Kbps
Channel(s) : 2 channels
Channel positions : Front: L R
Sampling rate : 48.0 KHz
Bit depth : 16 bits
Compression mode : Lossy
Stream size : 132 MiB (9%)
Alignment : Split accross interleaves
Interleave, duration : 96 ms (2.40 video frames)
Interleave, preload duration : 96 ms
Language : Russian



Скачать Гомер.и.Эдди.Homer.And.Eddie.(Андрей.Кончаловский.Andrey.Konchalovskiy).[1989.Комедия.драма.криминал.DVDRip].[AVO].(А.Михалев).torrent без регистрации
Золото ЗОЛОТАЯ РАЗДАЧА! СКАЧАННОЕ НЕ ЗАСЧИТЫВАЕТСЯ! Золото
Дата: Зарегистрирован   [ Тип: внутренний ] Как тут cкачать?
MAGNET ссылка
MAGNET ссылка


Скачать .torrent

14 KB

Статус: проверено DHT
Скачан: торрент - 97 раз, раздача полностью - 2 раз
Размер: 1,37 GB
Оценка:  5 (Голосов: 1)
Поблагодарили: 1
Поделиться ссылкой на эту раздачу с друзьями:
В контактеFacebookОдноклассникиTwitterLivejournalМой МирLiveinternet
 

 
Показать сообщения:    


Вы не можете начинать темы
Вы не можете отвечать на сообщения
Вы не можете редактировать свои сообщения
Вы не можете удалять свои сообщения
Вы не можете голосовать в опросах
Вы не можете прикреплять файлы к сообщениям
Вы можете скачивать файлы