Loading...
Error

Скачать Костюмы в законе / Suits (Сезон 04, серии 01-14 из 16) (Кевин Брэй, Майкл Смит) [2014-2015, драма, комедия, WEB-DLRip] [MVO] (To4ka) + [Original] + Subs (Rus) торрент без регистрации

 
Статистика раздачи
Размер:  6,16 GB   |    Скачан:  249 раз
Сидов:  1  [  0 KB/s  ]  
 
Автор Сообщение

leon030982

[] 

Костюмы в законе / Suits


Год выпуска: 2014-2015
Страна: США | USA Network
Жанр: Драма, комедия
Продолжительность: ~ 44 минуты
Перевод: Любительский (многоголосый, закадровый) - To4ka
Субтитры: Русские (To4kaTranslate)
Режиссёры: Кевин Брэй, Джон Скотт, Майкл Смит

В ролях: Гэбриел Махт, Патрик Дж. Адамс, Рик Хоффман, Меган Маркл, Сара Рафферти, Джина Торрес, Ванесса Рэй, Том Липински, Макс Топплин, Ребекка Скул, Джулиан ДеЗотти, Бен Льюис и др.
Описание: Убегая после неудачной попытки сбыта наркотиков, юрист-самоучка Майк Росс, выдающий себя за выпускника Гарварда, попадает на собеседование к одному из лучших адвокатов по сделкам Нью-Йорка Харви Спектру. Устав от скучных соискателей, мечтающих «верой и правдой служить букве закона», Харви рискует и нанимает Майка: у парня врожденный талант и фотографическая память. Так рождается один из самых неоднозначных, но, в то же время, и самых блестящих тандемов законников на Манхэттене.

ImDB / Кинопоиск / Сэмпл /
Качество: WEB-DLRip
Формат: AVI
Видео кодек: XviD
Аудио кодек: MP3
Видео: 720x400 (16:9), 23.976 fps, ~1350 kbps, ~0.190 bit/pixel
Аудио Rus: 48 kHz, 2 ch, ~128 kbps |To4ka|
Аудио Eng: 48 kHz, 2 ch, ~128 kbps |Original|
по заказу seopult
Озвучка: Александр Нелюбин, Андрей Хомяков, Ирина Грачева и Марина Комчарукова
Перевод: Релиз-группа "To4kaTranslate"

1 серия: Luizot, BENDERivec, Chantefleur, AmandaAngels, dreaMaker7, tabushechka, Lunshine, marianna13, rysha, RecruiTTiger, zigg_girl
Редактор перевода: Luizot
J:\Suits.s04.WEB-DLRip.Rus.Eng.[To4ka.TV]\Suits.s04e01.WEB-DLRip.Rus.Eng.[To4ka.TV]\Suits.s04e01.WEB-DLRip.Rus.Eng.[To4ka.TV].avi
General
Complete name : J:\Suits.s04.WEB-DLRip.Rus.Eng.[To4ka.TV]\Suits.s04e01.WEB-DLRip.Rus.Eng.[To4ka.TV]\Suits.s04e01.WEB-DLRip.Rus.Eng.[To4ka.TV].avi
Format : AVI
Format/Info : Audio Video Interleave
File size : 450 MiB
Duration : 43mn 1s
Overall bit rate : 1 463 Kbps
Writing application : VirtualDubModRus 1.5.10.2 (build 2542/release)
Writing library : VirtualDubMod build 2542/release
Video #0
ID : 0
Format : MPEG-4 Visual
Format profile : Advanced Simple@L5
Format settings, BVOP : 1
Format settings, QPel : No
Format settings, GMC : No warppoints
Format settings, Matrix : Default (MPEG)
Codec ID : XVID
Codec ID/Hint : XviD
Duration : 43mn 1s
Bit rate : 1 193 Kbps
Width : 720 pixels
Height : 400 pixels
Display aspect ratio : 16:9
Frame rate : 23.976 fps
Color space : YUV
Chroma subsampling : 4:2:0
Bit depth : 8 bits
Scan type : Progressive
Compression mode : Lossy
Bits/(Pixel*Frame) : 0.173
Stream size : 367 MiB (82%)
Writing library : XviD 64
Audio #1
ID : 1
Format : MPEG Audio
Format version : Version 1
Format profile : Layer 3
Mode : Joint stereo
Mode extension : MS Stereo
Codec ID : 55
Codec ID/Hint : MP3
Duration : 43mn 1s
Bit rate mode : Constant
Bit rate : 128 Kbps
Channel(s) : 2 channels
Sampling rate : 48.0 KHz
Compression mode : Lossy
Stream size : 39.4 MiB (9%)
Alignment : Aligned on interleaves
Interleave, duration : 42 ms (1.00 video frame)
Interleave, preload duration : 504 ms
Audio #2
ID : 2
Format : MPEG Audio
Format version : Version 1
Format profile : Layer 3
Mode : Joint stereo
Mode extension : MS Stereo
Codec ID : 55
Codec ID/Hint : MP3
Duration : 43mn 1s
Bit rate mode : Constant
Bit rate : 128 Kbps
Channel(s) : 2 channels
Sampling rate : 48.0 KHz
Compression mode : Lossy
Stream size : 39.4 MiB (9%)
Alignment : Aligned on interleaves
Interleave, duration : 42 ms (1.00 video frame)
Interleave, preload duration : 504 ms
Внимание! Раздача ведётся путём добавления новых серий; при каждом добавлении создаётся новый торрент. Чтобы начать докачку новой серии, пользователям необходимо сделать следующее:
Остановить скачивание.
Удалить старый торрент у себя из клиента (старые серии удалять не надо).
Скачать новый торрент и запустить его у себя в клиенте вместо старого, при этом указать клиенту путь в старую папку куда и должно происходить скачивание новых серий.
Ваш клиент при этом должен произвести хеширование (проверку) старой папки (если не производит сам - помогите ему сделать это), и будет докачивать только те серии которых у вас ещё нет. Старые серии при этом не удаляются, а продолжают раздаваться!
Eсли вы уже удалили старые серии, то предотвратить повторную закачку старых серий можно, отжав галочку в соответсвующих местах при запуске нового торрента. По возможности, желательно не удалять старые серии как можно дольше чтобы релизёр не столько продолжал раздавать старые серии, а смог сконцентрироваться на новых. [align=center]



Скачать Костюмы.в.законе.Suits.(Сезон.04.серии.01-14.из.16).(Кевин.Брэй.Майкл.Смит).[2014-2015.драма.комедия.WEB-DLRip].[MVO].(To4ka).+.[Original].+.Subs.(Rus).torrent без регистрации
Золото ЗОЛОТАЯ РАЗДАЧА! СКАЧАННОЕ НЕ ЗАСЧИТЫВАЕТСЯ! Золото
Дата: Зарегистрирован   [ Тип: внутренний ] Как тут cкачать?
MAGNET ссылка
MAGNET ссылка


Скачать .torrent

33 KB

Статус: проверено DHT
Скачан: торрент - 249 раз, раздача полностью - 3 раз
Размер: 6,16 GB
Оценка:  5 (Голосов: 2)
Поблагодарили: 2
Поделиться ссылкой на эту раздачу с друзьями:
В контактеFacebookОдноклассникиTwitterLivejournalМой МирLiveinternet
 

 

leon030982

[] 

добавлена 2-я серия
 

leon030982

[] 

раздача обновлена
 

leon030982

[] 

4-я серия
 

leon030982

[] 

обновлено az
 

leon030982

[] 

6-я серия az
 

leon030982

[] 

7-я серия
 

leon030982

[] 

раздача обновлена
 

leon030982

[] 

Цитата:

Продолжение 4 сезона (4х11 серия) в феврале-марте 2015.
5 сезон (летняя часть) - летом 2015, зимняя часть - февраль-март 2016.
 

leon030982

[] 

Добавлена 11-я серия az
 

leon030982

[] 

+12-13
 

leon030982

[] 

+14
 
Показать сообщения:    


Вы не можете начинать темы
Вы не можете отвечать на сообщения
Вы не можете редактировать свои сообщения
Вы не можете удалять свои сообщения
Вы не можете голосовать в опросах
Вы не можете прикреплять файлы к сообщениям
Вы можете скачивать файлы