Loading...
Error

Скачать Доберман / Dobermann (Ян Кунен) [1997, Боевик, триллер, криминал, BDRip-AVC] [KinoRay] [Sheikn] [MVO] + 3x[AVO] торрент без регистрации

 
Статистика раздачи
Размер:  4,13 GB   |    Скачан:  115 раз
Сидов:  1  [  0 KB/s  ]  
 
Автор Сообщение

Sheikn

[] 

Информация о фильме
Название: Доберман
Оригинальное название: Dobermann
Год выхода: 1997
Жанр: Боевик, триллер, криминал
Режиссер: Ян Кунен
Озвучивали: Венсан Кассель, Чеки Карио, Моника Беллуччи, Антуан Баслер, Доминик Беттенфельд, Паскаль Демолон, Марк Дюре, Ромен Дюрис, Франсуа Леванталь, Иван Мерат-Барбофф, Стефан Мецгер, Чик Ортега, Патрик Рокка, Флоранс Томассен, Ролан Амстюц, Жан Лекот, Арно Арбессье, Хосе Камачо, Жан-Франсуа Каттон, Рудольф Фрайтт, Аттика Гуеди, Марсель Легиллу, Лаура Манья, Бруно Ричард, Франсиа Сегюи, Вирджиния Арно, Марк Башет, Аффиф Бен Бадра, Люси Бизарт, Фридерик Камус, Марк Каро

О фильме: Герою фильма уже в день крестин один из друзей отца дарит Магнум-357. Мальчик вырос и стал супернаглым и дерзким грабителем по кличке Доберман. 357-й магнум заменили самые современные виды огнестрельного оружия, включая даже небольшие ракеты, которыми можно стрелять, навинчивая их на ствол пистолета. Вместе с ним всегда его глухая подруга, спокойно красящая ногти во время ограбления инкассаторов. Все члены банды — еще те типажи! Ловит же его жестокий полицейский рядом с которым Грязный Гарри — просто бойскаут. Он одержимо хочет поймать или убить Добермана и для достижения своей цели готов пойти на все и даже преступить закон.



Страна: Франция / Canal+ [fr], France 3 Cinema, La Chauve Souris, Noe Productions, PolyGram Audiovisuel
Продолжительность: 01:43:07
Перевод: Профессиональный многоголосый / Авторский одноголосый (Юрий Сербин, Леонид Володарский, Михаил Яроцкий)
Дата релиза: 15.06.2014

Файл
Кодек: MPEG-4 AVC
Качество: BDRip (AVC)
Видео: 1024x432, 3500 Кбит/с
Звук: Русский, французский (AC3, 6 ch, 448 Кбит/с)

Семпл
Unique ID : 212169016662726230347974600980982430979 (0x9F9E4428B5E76B34AB88B89C23807D03)
Complete name : D:\Doberman.1997.х264.BDRip.(AVC).KinoRay.(Sheikn)\Doberman.1997.х264.BDRip.(AVC).KinoRay.(Sheikn).mkv
Format : Matroska
Format version : Version 2
File size : 3.17 GiB
Duration : 1h 43mn
Overall bit rate : 4 396 Kbps
Encoded date : UTC 2014-06-15 16:15:02
Writing application : mkvmerge v4.0.0 ('The Stars were mine') сборка от Jun 6 2010 16:18:42
Writing library : libebml v1.0.0 + libmatroska v1.0.0
Video #1
ID : 1
Format : AVC
Format/Info : Advanced Video Codec
Format profile : High@L4.1
Format settings, CABAC : Yes
Format settings, ReFrames : 8 frames
Codec ID : V_MPEG4/ISO/AVC
Duration : 1h 43mn
Bit rate : 3 500 Kbps
Width : 1 024 pixels
Height : 432 pixels
Display aspect ratio : 2.35:1
Original display aspect ratio : 2.35:1
Frame rate mode : Constant
Frame rate : 24.000 fps
Color space : YUV
Chroma subsampling : 4:2:0
Bit depth : 8 bits
Scan type : Progressive
Bits/(Pixel*Frame) : 0.330
Stream size : 2.46 GiB (78%)
Writing library : x264 core 119 r2106 07efeb4
Encoding settings : cabac=1 / ref=8 / deblock=1:-3:-3 / analyse=0x3:0x113 / me=umh / subme=11 / psy=1 / psy_rd=1.00:0.00 / mixed_ref=1 / me_range=48 / chroma_me=1 / trellis=2 / 8x8dct=1 / cqm=0 / deadzone=21,11 / fast_pskip=0 / chroma_qp_offset=-2 / threads=3 / sliced_threads=0 / nr=0 / decimate=0 / interlaced=0 / bluray_compat=0 / constrained_intra=0 / bframes=8 / b_pyramid=2 / b_adapt=2 / b_bias=0 / direct=3 / weightb=1 / open_gop=1 / weightp=2 / keyint=240 / keyint_min=23 / scenecut=40 / intra_refresh=0 / rc=2pass / mbtree=0 / bitrate=3500 / ratetol=1.0 / qcomp=0.60 / qpmin=0 / qpmax=69 / qpstep=4 / cplxblur=20.0 / qblur=0.5 / ip_ratio=1.40 / pb_ratio=1.30 / aq=1:1.00
Language : English
Default : No
Forced : Yes
Audio #2
ID : 2
Format : AC-3
Format/Info : Audio Coding 3
Mode extension : CM (complete main)
Format settings, Endianness : Big
Codec ID : A_AC3
Duration : 1h 43mn
Bit rate mode : Constant
Bit rate : 448 Kbps
Channel(s) : 6 channels
Channel positions : Front: L C R, Side: L R, LFE
Sampling rate : 48.0 KHz
Bit depth : 16 bits
Compression mode : Lossy
Stream size : 330 MiB (10%)
Title : Профессиональный многоголосый (Домашнее Видео)
Language : Russian
Default : Yes
Forced : Yes
Audio #3
ID : 3
Format : AC-3
Format/Info : Audio Coding 3
Mode extension : CM (complete main)
Format settings, Endianness : Big
Codec ID : A_AC3
Duration : 1h 43mn
Bit rate mode : Constant
Bit rate : 448 Kbps
Channel(s) : 6 channels
Channel positions : Front: L C R, Side: L R, LFE
Sampling rate : 48.0 KHz
Bit depth : 16 bits
Compression mode : Lossy
Stream size : 330 MiB (10%)
Title : Оригинал
Language : French
Default : No
Forced : Yes
Аудио #1: Русский (AC3, 6 ch, 448 Кбит/с) | Профессиональный многоголосый (Домашнее Видео)
Аудио #2: Русский (AC3, 6 ch, 448 Кбит/с) | Французский (AC3, 6 ch, 448 Кбит/с) | Оригинал
Отдельно:
Аудио #3: Русский (AC3, 6 ch, 448 Кбит/с) | Авторский (Юрий Сербин)
Аудио #4: Русский (AC3, 6 ch, 448 Кбит/с) | Авторский (Леонид Володарский)
Аудио #5: Русский (AC3, 6 ch, 448 Кбит/с) | Авторский (Михаил Яроцкий) - ненормативная лексика
* Фильм включен в список запрещенных к распространению в Республике Беларусь.
* Снайперская винтовка, из которой Маню застрелил полицейского во время ограбления банка — Walther WA 2000. Это достаточно редкое оружие, поскольку с 1982 по 1988 гг. было произведено всего 176 винтовок. Винтовка является автоматической, однако Маню пользуется затвором после каждого выстрела.
Релиз от:



Скачать Доберман.Dobermann.(Ян.Кунен).[1997.Боевик.триллер.криминал.BDRip-AVC].[KinoRay].[Sheikn].[MVO].+.3x[AVO].torrent без регистрации
Золото ЗОЛОТАЯ РАЗДАЧА! СКАЧАННОЕ НЕ ЗАСЧИТЫВАЕТСЯ! Золото
Дата: Зарегистрирован   [ Тип: внутренний ] Как тут cкачать?
MAGNET ссылка
MAGNET ссылка


Скачать .torrent

42 KB

Статус: проверено DHT
Скачан: торрент - 115 раз, раздача полностью - 4 раз
Размер: 4,13 GB
Оценка:  - (Голосов: 0)
Поблагодарили: 2
Поделиться ссылкой на эту раздачу с друзьями:
В контактеFacebookОдноклассникиTwitterLivejournalМой МирLiveinternet
 

 
Показать сообщения:    


Вы не можете начинать темы
Вы не можете отвечать на сообщения
Вы не можете редактировать свои сообщения
Вы не можете удалять свои сообщения
Вы не можете голосовать в опросах
Вы не можете прикреплять файлы к сообщениям
Вы можете скачивать файлы