Loading...
Error

Скачать Причуда / Квирк / Quirke (Сезон 01, серии 01-03 из 03) (Джон Александр, Дьярмуид Лоуренс, Джим О’Хенлон) [2013, детектив, драма, HDTVRip] [Rus Subs] (Notabenoid) + [Orig] торрент без регистрации

 
Статистика раздачи
Размер:  2,93 GB   |    Скачан:  127 раз
Сидов:  1  [  0 KB/s  ]  
 
Автор Сообщение

leon030982

[] 

Причуда / Квирк / Quirke


Год выпуска: 2013
Страна: Великобритания, Ирландия
Жанр: детектив, драма
Продолжительность: 3x ~ 01:28:00
Перевод: Субтитры (NotaBenoid)

Режиссёры: Джон Александр, Дьярмуид Лоуренс, Джим О’Хенлон

В ролях: Гэбриел Бирн, Ник Даннинг, Брин Глисон, Эйслинг Франсиози, Стэнли Таунсенд, Майкл Гэмбон, Джеральдин Сомервилль, Фрэнк О’Салливан, Сара Стюарт, Дэнис Конуэй

Описание: Квирк — новый мини-сериал BBC One, основанный на книгах Джона Банвилла и адаптированный для телевидения сценаристами Эндрю Дэвисом и Конором Макферсоном.
Квирк (Quirke) (его имени мы не узнаем никогда) — главный патологоанатом Дублина.
Каждая серия будет посвящена расследованию Квирком смерти очередной пропащей души, которая окажется на его столе. Но на пути вольного детектива Квирк понимает, что каждая следующая смерть все больше непостижимым образом связана с его жизнью. Со временем Квирку предстоит столкнуться с прошлыми грехами и узнать секреты своей семьи.




Качество: HDTVRip
Формат: AVI
Видео кодек: XviD
Аудио кодек: MP2
Видео: 720x416 (1.73:1), 25 fps, XviD build 50 ~1407 kbps avg, 0.19 bit/pixel
Аудио: 48 kHz, Microsoft MPEG, 2 ch, ~192.00 kbps avg
В переводе принимали участие :

Цитата:

Субтитры (irver, squminaria, Aesha, victoria_vn, leparadis, Milo_slava, Podruga, Vela и др.)
General
Complete name : F:\Quirke.S01.[RUS Sub]_L\Quirke - S01 - E01 - Christine Falls.avi
Format : AVI
Format/Info : Audio Video Interleave
File size : 1 012 MiB
Duration : 1h 28mn
Overall bit rate : 1 606 Kbps
Writing application : VirtualDubMod 1.5.4.1 (build 2178/release)
Writing library : VirtualDubMod build 2178/release

Video
ID : 0
Format : MPEG-4 Visual
Format profile : Advanced Simple@L5
Format settings, BVOP : No
Format settings, QPel : No
Format settings, GMC : No warppoints
Format settings, Matrix : Custom
Codec ID : XVID
Codec ID/Hint : XviD
Duration : 1h 28mn
Bit rate : 1 407 Kbps
Width : 720 pixels
Height : 416 pixels
Display aspect ratio : 16:9
Frame rate : 25.000 fps
Color space : YUV
Chroma subsampling : 4:2:0
Bit depth : 8 bits
Scan type : Progressive
Compression mode : Lossy
Bits/(Pixel*Frame) : 0.188
Stream size : 887 MiB (88%)
Writing library : XviD 1.2.1 (UTC 2008-12-04)

Audio
ID : 1
Format : MPEG Audio
Format version : Version 1
Format profile : Layer 2
Codec ID : 50
Duration : 1h 28mn
Bit rate mode : Constant
Bit rate : 192 Kbps
Channel(s) : 2 channels
Sampling rate : 48.0 KHz
Compression mode : Lossy
Stream size : 121 MiB (12%)
Alignment : Aligned on interleaves
Interleave, duration : 80 ms (2.00 video frames)
Interleave, preload duration : 504 ms
General
Complete name : F:\Quirke.S01.[RUS Sub]_L\Quirke - S01 - E02 - The Silver Swan.avi
Format : AVI
Format/Info : Audio Video Interleave
File size : 1.09 GiB
Duration : 1h 29mn
Overall bit rate : 1 756 Kbps
Writing application : VirtualDubMod 1.5.4.1 (build 2178/release)
Writing library : VirtualDubMod build 2178/release

Video
ID : 0
Format : MPEG-4 Visual
Format profile : Advanced Simple@L5
Format settings, BVOP : No
Format settings, QPel : No
Format settings, GMC : No warppoints
Format settings, Matrix : Custom
Codec ID : XVID
Codec ID/Hint : XviD
Duration : 1h 29mn
Bit rate : 1 557 Kbps
Width : 720 pixels
Height : 416 pixels
Display aspect ratio : 16:9
Frame rate : 25.000 fps
Color space : YUV
Chroma subsampling : 4:2:0
Bit depth : 8 bits
Scan type : Progressive
Compression mode : Lossy
Bits/(Pixel*Frame) : 0.208
Stream size : 993 MiB (89%)
Writing library : XviD 1.2.1 (UTC 2008-12-04)

Audio
ID : 1
Format : MPEG Audio
Format version : Version 1
Format profile : Layer 2
Codec ID : 50
Duration : 1h 29mn
Bit rate mode : Constant
Bit rate : 192 Kbps
Channel(s) : 2 channels
Sampling rate : 48.0 KHz
Compression mode : Lossy
Stream size : 122 MiB (11%)
Alignment : Aligned on interleaves
Interleave, duration : 80 ms (2.00 video frames)
Interleave, preload duration : 504 ms
General
Complete name : F:\Quirke.S01.[RUS Sub]_L\Quirke - S01 - E03 - Elegy For April.avi
Format : AVI
Format/Info : Audio Video Interleave
File size : 868 MiB
Duration : 1h 29mn
Overall bit rate : 1 361 Kbps
Writing application : VirtualDubMod 1.5.4.1 (build 2178/release)
Writing library : VirtualDubMod build 2178/release

Video
ID : 0
Format : MPEG-4 Visual
Format profile : Advanced Simple@L5
Format settings, BVOP : No
Format settings, QPel : No
Format settings, GMC : No warppoints
Format settings, Matrix : Custom
Codec ID : XVID
Codec ID/Hint : XviD
Duration : 1h 29mn
Bit rate : 1 161 Kbps
Width : 720 pixels
Height : 400 pixels
Display aspect ratio : 16:9
Frame rate : 25.000 fps
Color space : YUV
Chroma subsampling : 4:2:0
Bit depth : 8 bits
Scan type : Progressive
Compression mode : Lossy
Bits/(Pixel*Frame) : 0.161
Stream size : 740 MiB (85%)
Writing library : XviD 1.2.1 (UTC 2008-12-04)

Audio
ID : 1
Format : MPEG Audio
Format version : Version 1
Format profile : Layer 2
Codec ID : 50
Duration : 1h 29mn
Bit rate mode : Constant
Bit rate : 192 Kbps
Channel(s) : 2 channels
Sampling rate : 48.0 KHz
Compression mode : Lossy
Stream size : 122 MiB (14%)
Alignment : Aligned on interleaves
Interleave, duration : 80 ms (2.00 video frames)
Interleave, preload duration : 504 ms




Скачать Причуда.Квирк.Quirke.(Сезон.01.серии.01-03.из.03).(Джон.Александр.Дьярмуид.Лоуренс.Джим.О’Хенлон).[2013.детектив.драма.HDTVRip].[Rus.Subs].(Notabenoid).+.[Orig].torrent без регистрации
Золото ЗОЛОТАЯ РАЗДАЧА! СКАЧАННОЕ НЕ ЗАСЧИТЫВАЕТСЯ! Золото
Дата: Зарегистрирован   [ Тип: внутренний ] Как тут cкачать?
MAGNET ссылка
MAGNET ссылка


Скачать .torrent

16 KB

Статус: проверено DHT
Скачан: торрент - 127 раз, раздача полностью - 5 раз
Размер: 2,93 GB
Оценка:  5 (Голосов: 1)
Поблагодарили: 0
Поделиться ссылкой на эту раздачу с друзьями:
В контактеFacebookОдноклассникиTwitterLivejournalМой МирLiveinternet
 

 
Показать сообщения:    


Вы не можете начинать темы
Вы не можете отвечать на сообщения
Вы не можете редактировать свои сообщения
Вы не можете удалять свои сообщения
Вы не можете голосовать в опросах
Вы не можете прикреплять файлы к сообщениям
Вы можете скачивать файлы