Loading...
Error

Скачать Непригодные для свиданий / Undateable (сезон 01) (Скотт Эллис, Дэвид Трейнер, Тед Уасс) [2014, комедия, WEB-DL] [720р] 2х[MVO (Paramount Comedy, ТНТ)]+[MVO (BaibaKo)]+[Eng] торрент без регистрации

Статистика раздачи
Размер:  10,26 GB   |    Скачан:  127 раз

Полного источника не было: 31 минута

 
 
 
Автор Сообщение

МихаНЕзатор

[] 

Непригодные для свиданий / Undateable


Страна: США
Производство: Warner Bros. Television, Doozer
Год выпуска: 2014
Сезон: 1
Жанр: комедия
Режиссеры: Фил Льюис, Эрик Дин Ситон, Скотт Эллис
Авторы сценария: Адам Щтикель, Майкл Хоберт

В ролях: Крис Д’Елия, Брент Морин, Бьянка Кэйлик, Рик Глассман, Рон Фанчес, Дэвид Финн, Бриджит Мендлер, Ева Амурри, Брига Хилэн

Описание: История о группе друзей, которые никак не могут завести знакомство с женщинами. Их жизни переворачиваются с ног на голову после того, как более уверенный человек входит в их мир...

Дата премьеры (мир): 29 мая 2014



Продолжительность: 13х ~00:22:00
Перевод: Профессиональный (многоголосый) | Paramount Comedy + Профессиональный (многоголосый) | ТНТ + Любительский (многоголосый) | BaibaKo
Субтитры: нет

Качество: WEB-DL 720р
Формат: МКV
Видео кодек: AVC
Аудио кодек: АС3
Видео: 1280x718 (16:9), 23.976 fps, MPEG-4 AVC ~4 000 kbps avg
Аудио №1: 48.0 kHz, AC3 Dolby Digital, 2/0 (L,R) ch, ~192 kbps | Paramount Comedy
Аудио №2: 48.0 kHz, AC3 Dolby Digital, 2/0 (L,R) ch, ~192 kbps | ТНТ
Аудио №3: 48.0 kHz, AC3 Dolby Digital, 3/2 (L,C,R,l,r) + LFE ch, ~384 kbps | BaibaKo
Аудио №4: 48.0 kHz, AC3 Dolby Digital, 3/2 (L,C,R,l,r) + LFE ch, ~384 kbps | ENG

АНОНСЫ ПОПУЛЯРНЫХ РАЗДАЧ


Торент обновлён, добавлены пероеводы Paramount Comedy и ТНТ!

01. Пилот / Pilot
02. Брючные друзья / Pants Buddies
03. Третий лишний / Three's a Crowd
04. Разъединитель / The Switch
05. Герой - это я / My Hero Is Me
06. Вожак стаи / Leader of the Pack
07. Фишка / The Move
08. Эффект Джулиуса / The Julius Effect
09. Низко висящий плод / Low Hanging Fruit
10. Отцовские тараканы / Daddy Issues
11. Да будет свет / Let There Be Light
12. Парни Дэнни / Danny's Boys
13. Гэри слушает / Go for Gary

Релиз-группа:BaibaKo
Перевод: Татьяна Ланцетова
Озвучка: Юлия Котурбаш, Дмитрий Нежельский, Александр Фурман и Денис Толяренко
Монтаж: Павел Дежин
General
Unique ID : 241669090655509978630441081155559416413 (0xB5CFC619E525EBABBAD760DEFE94E25D)
Complete name : Undateable.2014.S01E01.720p.WEB-DL.DD5.1.H.264-BkD.mkv
Format : Matroska
Format version : Version 4 / Version 2
File size : 804 MiB
Duration : 21mn 33s
Overall bit rate : 5 214 Kbps
Encoded date : UTC 2016-06-12 15:36:36
Writing application : mkvmerge v8.2.0 ('World of Adventure') 32bit
Writing library : libebml v1.3.1 + libmatroska v1.4.2
DURATION : 00:21:33.472000000
NUMBER_OF_FRAMES : 40421
NUMBER_OF_BYTES : 31043328
_STATISTICS_WRITING_APP : mkvmerge v8.2.0 ('World of Adventure') 32bit
_STATISTICS_WRITING_DATE_UT : 2016-06-12 15:36:36
_STATISTICS_TAGS : BPS DURATION NUMBER_OF_FRAMES NUMBER_OF_BYTES

Video
ID : 1
Format : AVC
Format/Info : Advanced Video Codec
Format profile : High@L3.1
Format settings, CABAC : No
Format settings, ReFrames : 2 frames
Codec ID : V_MPEG4/ISO/AVC
Duration : 21mn 33s
Bit rate : 3 958 Kbps
Width : 1 280 pixels
Height : 718 pixels
Display aspect ratio : 16:9
Frame rate mode : Constant
Frame rate : 23.976 fps
Color space : YUV
Chroma subsampling : 4:2:0
Bit depth : 8 bits
Scan type : Progressive
Bits/(Pixel*Frame) : 0.180
Stream size : 610 MiB (76%)
Language : English
Default : Yes
Forced : No
Color range : Limited
Color primaries : BT.709
Transfer characteristics : BT.709
Matrix coefficients : BT.709

Audio #1
ID : 2
Format : AC-3
Format/Info : Audio Coding 3
Mode extension : CM (complete main)
Format settings, Endianness : Big
Codec ID : A_AC3
Duration : 21mn 33s
Bit rate mode : Constant
Bit rate : 192 Kbps
Channel(s) : 2 channels
Channel positions : Front: L R
Sampling rate : 48.0 KHz
Compression mode : Lossy
Stream size : 29.6 MiB (4%)
Title : Paramount Comedy
Language : Russian
Default : Yes
Forced : No

Audio #2
ID : 3
Format : AC-3
Format/Info : Audio Coding 3
Mode extension : CM (complete main)
Format settings, Endianness : Big
Codec ID : A_AC3
Duration : 21mn 33s
Bit rate mode : Constant
Bit rate : 192 Kbps
Channel(s) : 2 channels
Channel positions : Front: L R
Sampling rate : 48.0 KHz
Compression mode : Lossy
Stream size : 29.6 MiB (4%)
Title : ТНТ
Language : Russian
Default : No
Forced : No

Audio #3
ID : 4
Format : AC-3
Format/Info : Audio Coding 3
Mode extension : CM (complete main)
Format settings, Endianness : Big
Codec ID : A_AC3
Duration : 21mn 33s
Bit rate mode : Constant
Bit rate : 384 Kbps
Channel(s) : 6 channels
Channel positions : Front: L C R, Side: L R, LFE
Sampling rate : 48.0 KHz
Compression mode : Lossy
Stream size : 59.2 MiB (7%)
Title : BaibaKo
Language : Russian
Default : No
Forced : No

Audio #4
ID : 5
Format : AC-3
Format/Info : Audio Coding 3
Mode extension : CM (complete main)
Format settings, Endianness : Big
Codec ID : A_AC3
Duration : 21mn 33s
Bit rate mode : Constant
Bit rate : 384 Kbps
Channel(s) : 6 channels
Channel positions : Front: L C R, Side: L R, LFE
Sampling rate : 48.0 KHz
Compression mode : Lossy
Stream size : 59.2 MiB (7%)
Language : English
Default : No
Forced : No



Скачать Непригодные.для.свиданий.Undateable.(сезон.01).(Скотт.Эллис.Дэвид.Трейнер.Тед.Уасс).[2014.комедия.WEB-DL].[720р].2х[MVO.(Paramount.Comedy.ТНТ)]+[MVO.(BaibaKo)]+[Eng].torrent без регистрации
Золото ЗОЛОТАЯ РАЗДАЧА! СКАЧАННОЕ НЕ ЗАСЧИТЫВАЕТСЯ! Золото
Дата: Зарегистрирован   [ Тип: внутренний ] Как тут cкачать?
MAGNET ссылка
MAGNET ссылка


Скачать .torrent

28 KB

Статус: проверено DHT
Скачан: торрент - 127 раз, раздача полностью - 1 раз
Размер: 10,26 GB
Оценка:  - (Голосов: 0)
Поблагодарили: 0
Поделиться ссылкой на эту раздачу с друзьями:
В контактеFacebookОдноклассникиTwitterLivejournalМой МирLiveinternet
 

 

МихаНЕзатор

[] 

Раздача обновлена
 
Показать сообщения:    


Вы не можете начинать темы
Вы не можете отвечать на сообщения
Вы не можете редактировать свои сообщения
Вы не можете удалять свои сообщения
Вы не можете голосовать в опросах
Вы не можете прикреплять файлы к сообщениям
Вы можете скачивать файлы