Loading...
Error

Скачать Серафино / Serafino (Пьетро Джерми) [1968, комедия, DVDRip-AVC] [Dub] торрент без регистрации

 
Статистика раздачи
Размер:  1,45 GB   |    Скачан:  124 раза

Полного источника не было: 26 минут

 
Автор Сообщение

Marsianka

[] 

Страна: Италия, Франция
Жанр: комедия
Год выпуска: 1968
Продолжительность: 01:33:05
Перевод: Профессиональный (полное дублирование)
Режиссер: Пьетро Джерми / Pietro Germi
В ролях: Адриано Челентано (Serafino Fiorin), Оттавия Пикколо (Lidia), Саро Урци (Uncle Agenore), Франческа Романа Колуцци (Asmara), Бенжамин Лев (Armido), Наццарено Натале (Silio), Джози Ипполито (Rocco), Эрмелинда Де Феличе (Aunt Armida), Нерина Монтаньяни (Aunt Gesuina), Оресте Палелла (Lawyer), Лучана Тюрина (Serafino's aunt), Пьеро Герлини (1st Policeman)
Дублёры: Владимир Ферапонтов (Serafino Fiorin), Александра Панова, Виктор Комиссаров, Мария Кремнева, Николай Граббе, Ольга Красина, Ольга Маркина, Рудольф Панков, Юрий Саранцев
Описание: Получив наследство, Серафино раздает деньги односельчанам, спускает с откоса автомобиль, приводит в дом не расчетливую невесту, зарящуюся на наследство, а легкомысленную женщину с уймой детишек...

Качество: DVDRip (DVD5(Custom) | Master_Bum)
Контейнер: MKV

Видео: AVC, 716x544 @ 1018х544 (1,85:1), 1970 kbps, 25 fps, 0,202 bpp
Аудио: русский / AC3 / 2.0 / 48 kHz / 256 kbps
Навигация по главам: есть


Формат : Matroska
Версия формата : Version 2
Размер файла : 1,45 Гбайт
Продолжительность : 1 ч. 33 м.
Общий поток : 2227 Кбит/сек
Название фильма : = Серафино / Serafino DVDRip by SC Kosmos =
Дата кодирования : UTC 2014-06-15 08:31:25
Программа кодирования : mkvmerge v3.3.0 ('Language') gebaut am Mar 24 2010 14:59:24
Библиотека кодирования : libebml v0.8.0 + libmatroska v0.9.0

Видео
Идентификатор : 1
Формат : AVC
Формат/Информация : Advanced Video Codec
Профиль формата : High@L4.1
Параметр CABAC формата : Да
Параметр ReFrames формата : 10 кадров
Идентификатор кодека : V_MPEG4/ISO/AVC
Продолжительность : 1 ч. 33 м.
Битрейт : 1970 Кбит/сек
Ширина : 716 пикселей
Высота : 544 пикселя
Соотношение сторон : 1,85:1
Соотношение сторон в оригинале : 1,85:1
Режим частоты кадров : Постоянный
Частота кадров : 25,000 кадров/сек
Цветовое пространство : YUV
Субдискретизация насыщенности : 4:2:0
Битовая глубина : 8 бит
Тип развёртки : Прогрессивная
Бит/(Пиксели*Кадры) : 0.202
Размер потока : 1,25 Гбайт (87%)
Заголовок : Серафино / Serafino DVDRip by SC Kosmos
Библиотека кодирования : x264 core 142 r2431 ac76440
Настройки программы : cabac=1 / ref=10 / deblock=1:-2:-2 / analyse=0x3:0x113 / me=umh / subme=11 / psy=1 / psy_rd=1.00:0.10 / mixed_ref=1 / me_range=32 / chroma_me=1 / trellis=2 / 8x8dct=1 / cqm=0 / deadzone=21,11 / fast_pskip=0 / chroma_qp_offset=-3 / threads=12 / lookahead_threads=1 / sliced_threads=0 / nr=0 / decimate=1 / interlaced=0 / bluray_compat=0 / constrained_intra=0 / bframes=10 / b_pyramid=2 / b_adapt=1 / b_bias=0 / direct=3 / weightb=1 / open_gop=0 / weightp=2 / keyint=250 / keyint_min=25 / scenecut=40 / intra_refresh=0 / rc=2pass / mbtree=0 / bitrate=1970 / ratetol=1.0 / qcomp=0.60 / qpmin=0 / qpmax=69 / qpstep=4 / cplxblur=20.0 / qblur=0.5 / ip_ratio=1.40 / pb_ratio=1.30 / aq=1:1.00
Язык : Italian
Default : Нет
Forced : Нет

Аудио
Идентификатор : 2
Формат : AC-3
Формат/Информация : Audio Coding 3
Расширение режима : CM (complete main)
Параметр Endianness формата : Big
Идентификатор кодека : A_AC3
Продолжительность : 1 ч. 33 м.
Вид битрейта : Постоянный
Битрейт : 256 Кбит/сек
Каналы : 2 канала
Расположение каналов : Front: L R
Частота : 48,0 КГц
Битовая глубина : 16 бит
Метод сжатия : С потерями
Размер потока : 170 Мбайт (11%)
Заголовок : Дубляж
Язык : Russian
Default : Да
Forced : Нет

Меню
00:00:00.000 : en:Chapter 01
00:06:22.080 : en:Chapter 02
00:16:47.520 : en:Chapter 03
00:27:39.360 : en:Chapter 04
00:36:54.720 : en:Chapter 05
00:46:41.280 : en:Chapter 06
00:57:36.960 : en:Chapter 07
01:09:23.040 : en:Chapter 08
01:17:49.440 : en:Chapter 09


В советском прокате фильм выходил в сокращённом варианте. Поэтому имеются эпизоды и фрагменты не дублированные. В этих местах звучит одноголосый перевод.
Отдельно спасибо st83de, SOAD-jan



Скачать Серафино.Serafino.(Пьетро.Джерми).[1968.комедия.DVDRip-AVC].[Dub].torrent без регистрации
Золото ЗОЛОТАЯ РАЗДАЧА! СКАЧАННОЕ НЕ ЗАСЧИТЫВАЕТСЯ! Золото
Дата: Зарегистрирован   [ Тип: внутренний ] Как тут cкачать?
MAGNET ссылка
MAGNET ссылка


Скачать .torrent

15 KB

Статус: проверено DHT
Скачан: торрент - 124 раз, раздача полностью - 41 раз
Размер: 1,45 GB
Оценка:  - (Голосов: 0)
Поблагодарили: 0
Поделиться ссылкой на эту раздачу с друзьями:
В контактеFacebookОдноклассникиTwitterLivejournalМой МирLiveinternet
 

 
Показать сообщения:    


Вы не можете начинать темы
Вы не можете отвечать на сообщения
Вы не можете редактировать свои сообщения
Вы не можете удалять свои сообщения
Вы не можете голосовать в опросах
Вы не можете прикреплять файлы к сообщениям
Вы можете скачивать файлы