Loading...
Error

Скачать Успеть до полуночи / Midnight Run (Мартин Брест / Martin Brest) [1988, боевик, комедия, криминальный фильм, приключения, HDDVDRip] [DVO] ("Премьер Мультимедиа") + [Original Eng] торрент без регистрации

 
Статистика раздачи
Размер:  2,18 GB   |    Скачан:  90 раз
Сидов:  1  [  0 KB/s  ]  
 
Автор Сообщение

leon030982

[] 

Успеть до полуночи / Midnight Run



Год выпуска: 1988
Страна: США
Жанр: боевик, комедия, криминальный фильм, приключения
Продолжительность: 02:06:15
Перевод: Профессиональный (двухголосый, закадровый) "Премьер Мультимедиа"
Cубтитры: нет
Оригинальная аудиодорожка: английский

Режиссер: Мартин Брест / Martin Brest

В ролях: Роберт Де Ниро, Чарльз Гродин, Яфет Котто, Джон Эштон, Дэннис Фарина, Джо Пантолиано, Ричард Фороньи, Роберт Миранда, Джек Кехо, Венди Филлипс, Филип Бэйкер Холл, Мэри Гиллис, Джон Тоулс-Бей, Стэнли Уайт, Скотт МакЭфи, Лоис Смит, Фрэн Брил, Том МакКлейстер, Томас Дж. Хейджбок, Линда Маргулес, Майкл Д. Гейнсборо, Джон Хэммил, Лу Фелдер, Камерон Милцер, Соня М. Робертс, Фрэнк Пеше

Описание: Джек бывший полицейский, сейчас промышляющий охотой за головами. За сто тысяч долларов он соглашается на вроде бы нетрудное, но ответственное дело, найти сбежавшего из-под защиты ФБР бухгалтера мафии, укравшего у своего хозяина, влиятельного мафиози, 15 миллионов долларов и спустившего их на благотворительность. Найти бухгалтера оказывается не так уж сложно, а вот доставить по месту назначения - на порядок сложнее, ибо на хвост Джеку садятся ФБР, мафия и пронырливый конкурент, готовый выполнить работу за меньшую сумму.




Качество видео: HDDVDRip
Формат: AVI
Видео кодек: XviD
Аудио кодек: AC3
Видео: 720x384 (1.88:1), 23.976 fps, XviD build 50 ~1893 kbps avg, 0.29 bit/pixel
Аудио #1: 48 kHz, AC3 Dolby Digital, 2/0 (L,R) ch, ~192.00 kbps avg [DVO]
Аудио #2: 48 kHz, AC3 Dolby Digital, 3/2 (L,C,R,l,r) + LFE ch, ~384.00 kbps avg [ENG]

Цитата:

Спасибо hvostenota за Премьер. Работа со звуком благодарю alex7691
автор рипа smit009
Complete name : D:\Midnight Run_1988\Midnight Run_1988. DVO Premier.avi
Format : AVI
Format/Info : Audio Video Interleave
Format profile : OpenDML
File size : 2.18 GiB
Duration : 2h 6mn
Overall bit rate : 2 477 Kbps
Writing application : VirtualDubModRus 1.5.10.2 (build 2542/release)
Writing library : VirtualDubMod build 2542/release
Video
ID : 0
Format : MPEG-4 Visual
Format profile : Advanced Simple@L5
Format settings, BVOP : 2
Format settings, QPel : No
Format settings, GMC : No warppoints
Format settings, Matrix : Default (MPEG)
Codec ID : XVID
Codec ID/Hint : XviD
Duration : 2h 6mn
Bit rate : 1 883 Kbps
Width : 720 pixels
Height : 384 pixels
Display aspect ratio : 1.85:1
Frame rate : 23.976 fps
Color space : YUV
Chroma subsampling : 4:2:0
Bit depth : 8 bits
Scan type : Progressive
Compression mode : Lossy
Bits/(Pixel*Frame) : 0.284
Stream size : 1.66 GiB (76%)
Writing library : XviD 1.2.1 (UTC 2008-12-04)
Audio #1
ID : 1
Format : AC-3
Format/Info : Audio Coding 3
Mode extension : CM (complete main)
Format settings, Endianness : Big
Codec ID : 2000
Duration : 2h 6mn
Bit rate mode : Constant
Bit rate : 192 Kbps
Channel count : 2 channels
Channel positions : Front: L R
Sampling rate : 48.0 KHz
Bit depth : 16 bits
Compression mode : Lossy
Stream size : 173 MiB (8%)
Alignment : Split accross interleaves
Interleave, duration : 42 ms (1.00 video frame)
Interleave, preload duration : 500 ms
Audio #2
ID : 2
Format : AC-3
Format/Info : Audio Coding 3
Mode extension : CM (complete main)
Format settings, Endianness : Big
Codec ID : 2000
Duration : 2h 6mn
Bit rate mode : Constant
Bit rate : 384 Kbps
Channel count : 6 channels
Channel positions : Front: L C R, Side: L R, LFE
Sampling rate : 48.0 KHz
Bit depth : 16 bits
Compression mode : Lossy
Stream size : 347 MiB (16%)
Alignment : Split accross interleaves
Interleave, duration : 42 ms (1.00 video frame)
Interleave, preload duration : 500 ms



Скачать Успеть.до.полуночи.Midnight.Run.(Мартин.Брест.Martin.Brest).[1988.боевик.комедия.криминальный.фильм.приключения.HDDVDRip].[DVO].("Премьер.Мультимедиа").+.[Original.Eng].torrent без регистрации
Золото ЗОЛОТАЯ РАЗДАЧА! СКАЧАННОЕ НЕ ЗАСЧИТЫВАЕТСЯ! Золото
Дата: Зарегистрирован   [ Тип: внутренний ] Как тут cкачать?
MAGNET ссылка
MAGNET ссылка


Скачать .torrent

11 KB

Статус: проверено DHT
Скачан: торрент - 90 раз, раздача полностью - 1 раз
Размер: 2,18 GB
Оценка:  5 (Голосов: 1)
Поблагодарили: 0
Поделиться ссылкой на эту раздачу с друзьями:
В контактеFacebookОдноклассникиTwitterLivejournalМой МирLiveinternet
 

 
Показать сообщения:    


Вы не можете начинать темы
Вы не можете отвечать на сообщения
Вы не можете редактировать свои сообщения
Вы не можете удалять свои сообщения
Вы не можете голосовать в опросах
Вы не можете прикреплять файлы к сообщениям
Вы можете скачивать файлы