Loading...
Error

Скачать Мясник / Le Boucher (Клод Шаброль) [1970, драма, триллер, DVDRip-AVC] [DVO]+[Sub] торрент без регистрации

 
Статистика раздачи
Размер:  2,06 GB   |    Скачан:  134 раза
Сидов:  1  [  0 KB/s  ]  
 
Автор Сообщение

Marsianka

[] 

Информация о фильме
Название: Мясник
Оригинальное название: Le Boucher
Год выхода: 1970
Жанр: драма, триллер
Режиссер: Клод Шаброль / Claude Chabrol
В ролях: Стефан Одран / Stéphane Audran, Жан Янн / Jean Yanne, Антонио Пассалия / Antonio Passalia, Паскаль Фероне / Pascal Ferone, Марио Беккарa / Mario Beccara, Вильям Геро / William Guérault, Роже Рюдел / Roger Rudel

О фильме:
Действие фильма происходит в сельской местности Франции, где учительница Элен начинает работать в школе по новому назначению. За ней вскоре начинает ухаживать деревенский мясник Пополь, хотя похоже, что она больше увлечена работой с детьми, чем поисками любовника. Между тем в деревне внезапно происходит серия беспорядочных убийств. Элен оказывается напрямую замешанной в этом деле, когда труп школьницы находят возле школьного двора...




Страна: Франция, Италия
Студия: Les Films de la Boétie, Euro International Film (EIA)
Продолжительность: 01:28:43.000
Перевод: Профессиональный (двухголосый закадровый) R5

Исходник R5

Файл
Кодек: h.264
Качество: DVDRip-AVC
Видео: 720x576 (16:9) @ 1024x576, 25.000 fps, AVC, ~2560 Kbps, 0.247 bits/pixel
Русский, 48.0 KHz, AC3, 6 ch, 384 Kbps
Французский, 48.0 KHz, AC3, 6 ch, 384 Kbps
Субтитры: Русские, VobSub
Общее
Уникальный идентификатор : 219543770360697291026993080931743392197 (0xA52A9796C20AD3A8BDA0481FB2CF61C5)
Полное имя : H:FilmsMyasnik.1970.DVDRip-AVC.mkv
Формат : Matroska
Версия формата : Version 4 / Version 2
Размер файла : 2,06 Гбайт
Продолжительность : 1 ч. 28 м.
Общий поток : 3331 Кбит/сек
Дата кодирования : UTC 2014-06-14 19:37:25
Программа кодирования : mkvmerge v7.0.0 ('Where We Going') 64bit built on Jun 9 2014 15:16:27
Библиотека кодирования : libebml v1.3.0 + libmatroska v1.4.1
DURATION : 01:26:40.033000000
NUMBER_OF_FRAMES : 802
NUMBER_OF_BYTES : 838020
_STATISTICS_WRITING_APP : mkvmerge v7.0.0 ('Where We Going') 64bit built on Jun 9 2014 15:16:27
_STATISTICS_WRITING_DATE_UTC : 2014-06-14 19:37:25
_STATISTICS_TAGS : BPS DURATION NUMBER_OF_FRAMES NUMBER_OF_BYTES

Видео
Идентификатор : 1
Формат : AVC
Формат/Информация : Advanced Video Codec
Профиль формата : High@L4.1
Параметр CABAC формата : Да
Параметр ReFrames формата : 16 кадров
Идентификатор кодека : V_MPEG4/ISO/AVC
Продолжительность : 1 ч. 28 м.
Битрейт : 2560 Кбит/сек
Ширина : 720 пикселей
Высота : 576 пикселей
Соотношение сторон : 16:9
Режим частоты кадров : Постоянный
Частота кадров : 25,000 кадров/сек
Стандарт вещания : PAL
Цветовое пространство : YUV
Субдискретизация насыщенности : 4:2:0
Битовая глубина : 8 бит
Тип развёртки : Прогрессивная
Бит/(Пиксели*Кадры) : 0.247
Размер потока : 1,55 Гбайт (75%)
Библиотека кодирования : x264 core 138 r2358 9e941d1
Настройки программы : cabac=1 / ref=16 / deblock=1:0:0 / analyse=0x3:0x133 / me=umh / subme=10 / psy=1 / psy_rd=1.10:0.10 / mixed_ref=1 / me_range=32 / chroma_me=1 / trellis=2 / 8x8dct=1 / cqm=0 / deadzone=21,11 / fast_pskip=0 / chroma_qp_offset=-3 / threads=8 / lookahead_threads=2 / sliced_threads=0 / nr=0 / decimate=0 / interlaced=0 / bluray_compat=0 / constrained_intra=0 / bframes=11 / b_pyramid=2 / b_adapt=2 / b_bias=0 / direct=3 / weightb=1 / open_gop=0 / weightp=2 / keyint=250 / keyint_min=25 / scenecut=60 / intra_refresh=0 / rc_lookahead=60 / rc=2pass / mbtree=0 / bitrate=2560 / ratetol=1.0 / qcomp=0.60 / qpmin=0 / qpmax=69 / qpstep=4 / cplxblur=20.0 / qblur=0.5 / vbv_maxrate=50000 / vbv_bufsize=62500 / nal_hrd=none / ip_ratio=1.40 / pb_ratio=1.30 / aq=1:1.00
Default : Нет
Forced : Нет
Коэффициенты матрицы : BT.601
DURATION : 01:28:43.000000000
NUMBER_OF_FRAMES : 133075
NUMBER_OF_BYTES : 1703432780
_STATISTICS_WRITING_APP : mkvmerge v7.0.0 ('Where We Going') 64bit built on Jun 9 2014 15:16:27
_STATISTICS_WRITING_DATE_UTC : 2014-06-14 19:37:25
_STATISTICS_TAGS : BPS DURATION NUMBER_OF_FRAMES NUMBER_OF_BYTES

Аудио #1
Идентификатор : 2
Формат : AC-3
Формат/Информация : Audio Coding 3
Расширение режима : CM (complete main)
Параметр Endianness формата : Big
Идентификатор кодека : A_AC3
Продолжительность : 1 ч. 28 м.
Вид битрейта : Постоянный
Битрейт : 384 Кбит/сек
Каналы : 6 каналов
Расположение каналов : Front: L C R, Side: L R, LFE
Частота : 48,0 КГц
Битовая глубина : 16 бит
Метод сжатия : С потерями
Размер потока : 244 Мбайт (12%)
Язык : Russian
Default : Да
Forced : Нет

Аудио #2
Идентификатор : 3
Формат : AC-3
Формат/Информация : Audio Coding 3
Расширение режима : CM (complete main)
Параметр Endianness формата : Big
Идентификатор кодека : A_AC3
Продолжительность : 1 ч. 28 м.
Вид битрейта : Постоянный
Битрейт : 384 Кбит/сек
Каналы : 6 каналов
Расположение каналов : Front: L C R, Side: L R, LFE
Частота : 48,0 КГц
Битовая глубина : 16 бит
Метод сжатия : С потерями
Размер потока : 244 Мбайт (12%)
Язык : French
Default : Нет
Forced : Нет

Текст
Идентификатор : 4
Формат : VobSub
Режим смешивания : zlib
Идентификатор кодека : S_VOBSUB
Идентификатор кодека/Информация : The same subtitle format used on DVDs
Язык : Russian
Default : Нет
Forced : Нет

Меню
00:00:00.000 : en:Chapter 01
00:13:08.320 : en:Chapter 02
00:20:52.160 : en:Chapter 03
00:27:16.440 : en:Chapter 04
00:35:06.000 : en:Chapter 05
00:40:59.080 : en:Chapter 06
00:43:06.480 : en:Chapter 07
00:47:41.040 : en:Chapter 08
00:53:50.240 : en:Chapter 09
00:59:49.040 : en:Chapter 10
01:04:56.360 : en:Chapter 11
01:17:08.000 : en:Chapter 12



Скачать Мясник.Le.Boucher.(Клод.Шаброль).[1970.драма.триллер.DVDRip-AVC].[DVO]+[Sub].torrent без регистрации
Золото ЗОЛОТАЯ РАЗДАЧА! СКАЧАННОЕ НЕ ЗАСЧИТЫВАЕТСЯ! Золото
Дата: Зарегистрирован   [ Тип: внутренний ] Как тут cкачать?
MAGNET ссылка
MAGNET ссылка


Скачать .torrent

11 KB

Статус: проверено DHT
Скачан: торрент - 134 раз, раздача полностью - 12 раз
Размер: 2,06 GB
Оценка:  - (Голосов: 0)
Поблагодарили: 0
Поделиться ссылкой на эту раздачу с друзьями:
В контактеFacebookОдноклассникиTwitterLivejournalМой МирLiveinternet
 

 
Показать сообщения:    


Вы не можете начинать темы
Вы не можете отвечать на сообщения
Вы не можете редактировать свои сообщения
Вы не можете удалять свои сообщения
Вы не можете голосовать в опросах
Вы не можете прикреплять файлы к сообщениям
Вы можете скачивать файлы