Loading...
Error

Скачать Космическая морская пехота / Space Marines (Джон Уайднер / John Weidner) [1996, фантастика, боевик, DVDRip] [MVO] (Варус-Видео) + [MVO] (ТВ-3) торрент без регистрации

 
Статистика раздачи
Размер:  1,49 GB   |    Скачан:  111 раз
Сидов:  1  [  0 KB/s  ]  
 
Автор Сообщение

leon030982

[] 

Космическая морская пехота / Space Marines


Год выпуска: 1996
Страна: США
Жанр: фантастика, боевик
Продолжительность: 01:30:01
Перевод #1: Профессиональный (многоголосый, закадровый) [студия "Варус-Видео"]
Роли озвучивают: Юрий Саранцев, Владимир Конкин, Марина Тарасова, Никита Прозоровский
Перевод #2: Профессиональный (многоголосый закадровый)[ТВ-3]
Cубтитры: нет

Режиссер: Джон Уайднер / John Weidner

В ролях: Билли Уэрт, Кэди Хаффмен, Джон Пайпер-Фергюсон, Эдвард Альберт, Мег Фостер, Блейк Бойд, Т.Дж. Майерс, Майкл Бэйли Смит, Эд Спила, Шерман Огастас, Билл Брочтруп, Кевин Пейдж, Джеймс Шигета, Энджи Боллинг, Трэвис Дэвис, Марк Хэнсон, Ричард Джексон, Ли Ритчи, Мэттью Томпкинс, Джеймс МакДональд, Ричард Филлипс

Описание: Далекое будущее. Космический пират, полковник Фрейзер, захватывает в заложники вице-министра Объединенных Планет и похищает взрывчатку из антиматерии. Экипажу боевого космического корабля "Миссури" поручено вызволить государственного чиновника из плена. Перед угрозой гибели вице-министра посол Накамура стремится разрешить конфликт мирным путем и вступает в переговоры с Фрейзером, однако в результате сам становится заложником. Тогда в дело вступают отважные морские пехотинцы капитана Грея...



Качество: DVDRip
Формат: AVI
Видео кодек: XviD
Аудио кодек: AC3, MP3
Видео: XviD build 50, 704x528 (4:3), 25.00 fps, 1965 kbps avg
Аудио #1: Russian AC3 Dolby Digital, 48 kHz, 2/0 (L,R) ch, 192.00 kbps avg [Варус-Видео]
Аудио #2: Russian MPEG Layer 3, 48 kHz, 2/0 (L,R) ch, 192.00 kbps avg [ТВ-3]

Цитата:

Футуристическое транспортное средство используемое морскими пехотинцами — фактически изменённый британский военный грузовик амфибия 1950-ых годов.

Цитата:

Рип smit009. Спасибо hvostenota за Варус-Видео. Работа со звуком благодарю alex7691
Complete name : D:\Space Marines_1996\Space Marines_1996.2 MVO DVDRip.avi
Format : AVI
Format/Info : Audio Video Interleave
File size : 1.49 GiB
Duration : 1h 30mn
Overall bit rate : 2 364 Kbps
Writing application : VirtualDubModRus 1.5.10.2 (build 2542/release)
Writing library : VirtualDubMod build 2542/release

Video
ID : 0
Format : MPEG-4 Visual
Format profile : Advanced Simple@L5
Format settings, BVOP : 2
Format settings, QPel : No
Format settings, GMC : No warppoints
Format settings, Matrix : Default (MPEG)
Codec ID : XVID
Codec ID/Hint : XviD
Duration : 1h 30mn
Bit rate : 1 965 Kbps
Width : 704 pixels
Height : 528 pixels
Display aspect ratio : 4:3
Frame rate : 25.000 fps
Color space : YUV
Chroma subsampling : 4:2:0
Bit depth : 8 bits
Scan type : Progressive
Compression mode : Lossy
Bits/(Pixel*Frame) : 0.211
Stream size : 1.24 GiB (83%)
Writing library : XviD 73

Audio #1
ID : 1
Format : AC-3
Format/Info : Audio Coding 3
Mode extension : CM (complete main)
Format settings, Endianness : Big
Codec ID : 2000
Duration : 1h 30mn
Bit rate mode : Constant
Bit rate : 192 Kbps
Channel count : 2 channels
Channel positions : Front: L R
Sampling rate : 48.0 KHz
Bit depth : 16 bits
Compression mode : Lossy
Stream size : 124 MiB (8%)
Alignment : Split accross interleaves
Interleave, duration : 40 ms (1.00 video frame)
Interleave, preload duration : 500 ms

Audio #2
ID : 2
Format : MPEG Audio
Format version : Version 1
Format profile : Layer 3
Mode : Joint stereo
Mode extension : MS Stereo
Codec ID : 55
Codec ID/Hint : MP3
Duration : 1h 30mn
Bit rate mode : Constant
Bit rate : 192 Kbps
Channel count : 2 channels
Sampling rate : 48.0 KHz
Compression mode : Lossy
Stream size : 124 MiB (8%)
Alignment : Aligned on interleaves
Interleave, duration : 40 ms (1.00 video frame)
Interleave, preload duration : 504 ms
Writing library : LAME3.98.4



Скачать Космическая.морская.пехота.Space.Marines.(Джон.Уайднер.John.Weidner).[1996.фантастика.боевик.DVDRip].[MVO].(Варус-Видео).+.[MVO].(ТВ-3).torrent без регистрации
Золото ЗОЛОТАЯ РАЗДАЧА! СКАЧАННОЕ НЕ ЗАСЧИТЫВАЕТСЯ! Золото
Дата: Зарегистрирован   [ Тип: внутренний ] Как тут cкачать?
MAGNET ссылка
MAGNET ссылка


Скачать .torrent

15 KB

Статус: проверено DHT
Скачан: торрент - 111 раз, раздача полностью - 2 раз
Размер: 1,49 GB
Оценка:  5 (Голосов: 1)
Поблагодарили: 1
Поделиться ссылкой на эту раздачу с друзьями:
В контактеFacebookОдноклассникиTwitterLivejournalМой МирLiveinternet
 

 
Показать сообщения:    


Вы не можете начинать темы
Вы не можете отвечать на сообщения
Вы не можете редактировать свои сообщения
Вы не можете удалять свои сообщения
Вы не можете голосовать в опросах
Вы не можете прикреплять файлы к сообщениям
Вы можете скачивать файлы