Loading...
Error

Скачать Дорогой Боженька / Dear God (Гэрри Маршалл / Garry Marshall) [1996, комедия, HDTVRip] [MVO] торрент без регистрации

 
Статистика раздачи
Размер:  747 MB   |    Скачан:  153 раза
Сидов:  1  [  0 KB/s  ]  
 
Автор Сообщение

leon030982

[] 

Дорогой Боженька / Dear God


Год выпуска: 1996
Страна: США
Жанр: комедия
Продолжительность: 01:46:29
Перевод: Профессиональный (многоголосый закадровый)
Cубтитры: нет

Режиссер: Гэрри Маршалл / Garry Marshall

В ролях: Грег Киннер, Лори Меткаф, Мария Питилло, Тим Конуэй, Гектор Элизондо, Джон Седа, Роско Ли Браун, Анна Мария Хорсфорд, Кэтлин Маршалл, Айседора О’Бото

Описание: Жулик и аферист Том Тернер ни дня в своей жизни не занимался честным трудом и в конце концов попался. По решению суда он должен или устроиться на работу, или сесть в тюрьму. Сделав естественный выбор, Том начинает работу в почтовом отделении «безнадежных писем», но и там не может удержаться от своих вредных привычек.



Качество: HDTVRip
Формат: AVI
Видео кодек: XviD
Аудио кодек: MP3
Видео: XviD, 843 Kbps, 624 х 352 pixels, 25.000 fps
Аудио: MP3, 128 Kbps, 2 channels, 48.0 KHz
General
Complete name : D:\Dear.God.1996.HDTVRip.745Mb.avi
Format : AVI
Format/Info : Audio Video Interleave
File size : 747 MiB
Duration : 1h 46mn
Overall bit rate : 981 Kbps
Writing application : VirtualDubMod 1.5.10.3 | www.virtualdub-fr.org || (build 2550/release)
Writing library : VirtualDubMod build 2550/release
Video
ID : 0
Format : MPEG-4 Visual
Format profile : Advanced Simple@L5
Format settings, BVOP : Yes
Format settings, QPel : No
Format settings, GMC : No warppoints
Format settings, Matrix : Custom
Codec ID : XVID
Codec ID/Hint : XviD
Duration : 1h 46mn
Bit rate : 843 Kbps
Width : 624 pixels
Height : 352 pixels
Display aspect ratio : 16:9
Frame rate : 25.000 fps
Color space : YUV
Chroma subsampling : 4:2:0
Bit depth : 8 bits
Scan type : Progressive
Compression mode : Lossy
Bits/(Pixel*Frame) : 0.154
Stream size : 642 MiB (86%)
Writing library : XviD 73
Audio
ID : 1
Format : MPEG Audio
Format version : Version 1
Format profile : Layer 3
Codec ID : 55
Codec ID/Hint : MP3
Duration : 1h 46mn
Bit rate mode : Constant
Bit rate : 128 Kbps
Channel(s) : 2 channels
Sampling rate : 48.0 KHz
Compression mode : Lossy
Stream size : 97.5 MiB (13%)
Alignment : Aligned on interleaves
Interleave, duration : 40 ms (1.00 video frame)
Interleave, preload duration : 504 ms
Writing library : LAME3.99r
Encoding settings : -m s -V 4 -q 2 -lowpass 17 -b 128



Скачать Дорогой.Боженька.Dear.God.(Гэрри.Маршалл.Garry.Marshall).[1996.комедия.HDTVRip].[MVO].torrent без регистрации
Золото ЗОЛОТАЯ РАЗДАЧА! СКАЧАННОЕ НЕ ЗАСЧИТЫВАЕТСЯ! Золото
Дата: Зарегистрирован   [ Тип: внутренний ] Как тут cкачать?
MAGNET ссылка
MAGNET ссылка


Скачать .torrent

15 KB

Статус: проверено DHT
Скачан: торрент - 153 раз, раздача полностью - 14 раз
Размер: 747 MB
Оценка:  5 (Голосов: 2)
Поблагодарили: 2
Поделиться ссылкой на эту раздачу с друзьями:
В контактеFacebookОдноклассникиTwitterLivejournalМой МирLiveinternet
 

 
Показать сообщения:    


Вы не можете начинать темы
Вы не можете отвечать на сообщения
Вы не можете редактировать свои сообщения
Вы не можете удалять свои сообщения
Вы не можете голосовать в опросах
Вы не можете прикреплять файлы к сообщениям
Вы можете скачивать файлы