Loading...
Error

Скачать Особо опасный преступник / Most Wanted (Дэвид Хоган / David Hogan) [1997 г., боевик, триллер, DVDRip] [AVO] (Горчаков) торрент без регистрации

 
Статистика раздачи
Размер:  747 MB   |    Скачан:  116 раз
Сидов:  1  [  0 KB/s  ]  
 
Автор Сообщение

leon030982

[] 

Особо опасный преступник / Most Wanted
Год выпуска: 1997
Страна: США
Жанр: боевик, триллер
Продолжительность: 01:38:55
Перевод: Авторский (одноголосый, закадровый) Василий Горчаков
Cубтитры: нет
Режиссер: Дэвид Хоган / David Hogan

В ролях: Кинен Айвори Уайанс, Роберт Котечки, Рик Крамер, Пол Сорвино, Кенн Уайтакер, Вольфганг Бодисон, Джон Войт, Эдди Велес, Майкл Марич, Саймон Бейкер, Джилл Хеннесси, Эрик Робертс

Описание: Джеймс Данн, снайпер морской пехоты, участник войны в Ираке, отказался выстрелить в десятилетнего мальчишку и случайно убил сержанта, заставлявшего его это сделать. Данна приговорили к смертной казни, но из тюрьмы он был выкран и получил предложение работать в секретном правительственном подразделении подполковника Кейси.
Вынужденный согласиться, Джеймс получил первое задание: ликвидировать известного промышленника во время открытия госпиталя для ветеранов. Но до выстрела Данна раздался другой выстрел, сразивший первую леди — жену президента, присутствовавшую на церемонии. Очень быстро Данн понял, что его подставили, чтобы выдать за убийцу-одиночку. Преследуемый врагами, он начинает самостоятельное расследование, в котором ему помогает молодая врач, случайно заснявшая на видео настоящего убийцу.


Качество видео: DVDRip [спасибо allecs2010]
Формат видео: AVI
Видео кодек: XviD
Аудио кодек: AC3
Видео: 688x288 (2.39:1), 23.976 fps, XviD build 50 ~854 kbps avg, 0.18 bit/pixel
Аудио: 48 kHz, AC3 Dolby Digital, 2/0 (L,R) ch, ~192 kbps
Полное имя : Osobo.opasnyj.prestupnik.1997.DVDRip.avi
Формат : AVI
Формат/Информация : Audio Video Interleave
Размер файла : 747 Мбайт
Продолжительность : 1 ч. 38 м.
Общий поток : 1056 Кбит/сек
Программа кодирования : VirtualDubMod 1.5.10.2 (build 2540/release)
Библиотека кодирования : VirtualDubMod build 2540/release
Видео
Идентификатор : 0
Формат : MPEG-4 Visual
Профиль формата : Advanced Simple@L5
Параметр BVOP формата : 1
Параметр QPel формата : Нет
Параметр GMC формата : Без точки перехода
Параметр матрицы формата : Выборочная
Идентификатор кодека : XVID
Идентификатор кодека/Подсказка : XviD
Продолжительность : 1 ч. 38 м.
Битрейт : 855 Кбит/сек
Ширина : 688 пикселей
Высота : 288 пикселей
Соотношение сторон : 2,40:1
Частота кадров : 23,976 кадра/сек
Цветовое пространство : YUV
Субдискретизация насыщенности : 4:2:0
Битовая глубина : 8 бит
Тип развёртки : Прогрессивная
Метод сжатия : С потерями
Бит/(Пиксели*Кадры) : 0.180
Размер потока : 605 Мбайт (81%)
Библиотека кодирования : XviD 1.2.1 (UTC 2008-12-04)
Аудио
Идентификатор : 1
Формат : AC-3
Формат/Информация : Audio Coding 3
Расширение режима : CM (complete main)
Параметр Endianness формата : Big
Идентификатор кодека : 2000
Продолжительность : 1 ч. 38 м.
Вид битрейта : Постоянный
Битрейт : 192 Кбит/сек
Каналы : 2 канала
Расположение каналов : Front: L R
Частота : 48,0 КГц
Битовая глубина : 16 бит
Метод сжатия : С потерями
Размер потока : 136 Мбайт (18%)
Выравнивание : Разделение по промежуткам
Продолжительность промежутка : 42 мс. (1,00 видеокадр)
Время предзагрузки промежутка : 500 мс.



Скачать Особо.опасный.преступник.Most.Wanted.(Дэвид.Хоган.David.Hogan).[1997.г.боевик.триллер.DVDRip].[AVO].(Горчаков).torrent без регистрации
Золото ЗОЛОТАЯ РАЗДАЧА! СКАЧАННОЕ НЕ ЗАСЧИТЫВАЕТСЯ! Золото
Дата: Зарегистрирован   [ Тип: внутренний ] Как тут cкачать?
MAGNET ссылка
MAGNET ссылка


Скачать .torrent

15 KB

Статус: проверено DHT
Скачан: торрент - 116 раз, раздача полностью - 4 раз
Размер: 747 MB
Оценка:  - (Голосов: 0)
Поблагодарили: 0
Поделиться ссылкой на эту раздачу с друзьями:
В контактеFacebookОдноклассникиTwitterLivejournalМой МирLiveinternet
 

 
Показать сообщения:    


Вы не можете начинать темы
Вы не можете отвечать на сообщения
Вы не можете редактировать свои сообщения
Вы не можете удалять свои сообщения
Вы не можете голосовать в опросах
Вы не можете прикреплять файлы к сообщениям
Вы можете скачивать файлы