Loading...
Error

Скачать Саботаж / Sabotage (Тибор Такач / Tibor Takacs) [1996, Канада, боевик, триллер, драма, DVDRip] [AVO] (Горчаков) торрент без регистрации

 
Статистика раздачи
Размер:  745 MB   |    Скачан:  105 раз
Сидов:  1  [  0 KB/s  ]  
 
Автор Сообщение

leon030982

[] 

Саботаж / Sabotage

«The Dark Heart Of The Black Ops Beats To A Secret Agenda»


Год выпуска: 1996
Страна: Канада
Жанр: боевик, триллер, драма
Продолжительность: 01:39:02
Перевод: Авторский (одноголосый закадровый) [Горчаков]
Cубтитры: нет

Режиссер: Тибор Такач / Tibor Takacs

В ролях: Марк Дакаскос, Кэрри-Энн Мосс, Тони Тодд, Грэм Грин, Джон Невилл, Джеймс Пёрселл, Сара Розен Фруитман, Ричард Култер, Хайди фон Паллеске, Джон Пол Янг

Описание: Бывший морской пехотинец Майк Бишоп (Марк Дакаскос) учавствует в провальной операции по спасению заложников. Получив 7 ранений от руки профессионального убийцы (Тони Тодд), Бишоп чудом остается жив... Несколько лет спустя семья, в которой Бишоп работает телохранителем, становится жертвой того же убийцы. Объединившись со спецагентом ФБР (Кэри Энн Мосс), Бишоп вступает в смертельную схватку с суперкиллером, и ничьей в этой борьбе быть не может...



Качество: DVDRip
Формат: AVI
Видео: 576x432 (4:3), 25 fps, XviD ~ 914 kbps avg, 0.147 bit/pixel
Аудио: 48 kHz, MPEG Layer 3, 2 ch, ~128.00 kbps avg
Общее
Полное имя : C:\Users\ЯРОСЛАВ\Desktop\фильмы\Sabotazh.1996.DVDRip.avi
Формат : AVI
Формат/Информация : Audio Video Interleave
Размер файла : 745 Мбайт
Продолжительность : 1 ч. 39 м.
Общий поток : 1052 Кбит/сек
Программа кодирования : VirtualDubModRus 1.5.10.2 (build 2542/release)
Библиотека кодирования : VirtualDub build 32842/release
Видео
Идентификатор : 0
Формат : MPEG-4 Visual
Профиль формата : Advanced Simple@L5
Параметр BVOP формата : 1
Параметр QPel формата : Нет
Параметр GMC формата : Без точки перехода
Параметр матрицы формата : Выборочная
Идентификатор кодека : XVID
Идентификатор кодека/Подсказка : XviD
Продолжительность : 1 ч. 39 м.
Битрейт : 914 Кбит/сек
Ширина : 576 пикселей
Высота : 432 пикселя
Соотношение сторон : 4:3
Частота кадров : 25,000 кадров/сек
Цветовое пространство : YUV
Субдискретизация насыщенности : 4:2:0
Битовая глубина : 8 бит
Тип развёртки : Прогрессивная
Метод сжатия : С потерями
Бит/(Пиксели*Кадры) : 0.147
Размер потока : 647 Мбайт (87%)
Библиотека кодирования : XviD 73
Аудио
Идентификатор : 1
Формат : MPEG Audio
Версия формата : Version 1
Профиль формата : Layer 3
Идентификатор кодека : 55
Идентификатор кодека/Подсказка : MP3
Продолжительность : 1 ч. 39 м.
Вид битрейта : Постоянный
Битрейт : 128 Кбит/сек
Каналы : 2 канала
Частота : 48,0 КГц
Метод сжатия : С потерями
Размер потока : 90,7 Мбайт (12%)
Выравнивание : Разделение по промежуткам
Продолжительность промежутка : 40 мс. (1,00 видеокадр)
Время предзагрузки промежутка : 500 мс.
Библиотека кодирования : LAME3.99r
Настройки программы : -m s -V 4 -q 2 -lowpass 17 -b 128




Скачать Саботаж.Sabotage.(Тибор.Такач.Tibor.Takacs).[1996.Канада.боевик.триллер.драма.DVDRip].[AVO].(Горчаков).torrent без регистрации
Золото ЗОЛОТАЯ РАЗДАЧА! СКАЧАННОЕ НЕ ЗАСЧИТЫВАЕТСЯ! Золото
Дата: Зарегистрирован   [ Тип: внутренний ] Как тут cкачать?
MAGNET ссылка
MAGNET ссылка


Скачать .torrent

15 KB

Статус: проверено DHT
Скачан: торрент - 105 раз, раздача полностью - 28 раз
Размер: 745 MB
Оценка:  - (Голосов: 0)
Поблагодарили: 0
Поделиться ссылкой на эту раздачу с друзьями:
В контактеFacebookОдноклассникиTwitterLivejournalМой МирLiveinternet
 

 
Показать сообщения:    


Вы не можете начинать темы
Вы не можете отвечать на сообщения
Вы не можете редактировать свои сообщения
Вы не можете удалять свои сообщения
Вы не можете голосовать в опросах
Вы не можете прикреплять файлы к сообщениям
Вы можете скачивать файлы