Loading...
Error

Скачать 13 Заданий / 13 Game Sayawng (Чукайт Саквееракул) [2006, ужасы, триллер, драма, BDRip-AVC] [MVO] торрент без регистрации

 
Статистика раздачи
Размер:  2,18 GB   |    Скачан:  112 раз
Сидов:  1  [  0 KB/s  ]  
 
Автор Сообщение

Marsianka

[] 

Год выпуска: 2006
Слоган: «13 проблем. $100 миллионов. Как далеко зашли бы вы?»
Жанр: ужасы, триллер, драма
Режиссер: Чукайт Саквееракул / Chukiat Sakveerakul
В ролях: Krissada Terrence (Pusit), Achita Wuthinounsurasit (Tawng), Сарунью Вонгкрачанг (Surachai), Nattapong Arunnate (Mik), Alexander Rendel (Tay), Achita Sikamana (Tong), Penpak Sirikul (Maggie)

Описание:
У Пучита, можно сказать, худший день в жизни. Он расстался с девушкой, потерял работу и у него серьёзные долги. Но всё изменится, как только раздастся загадочный телефонный звонок, а голос на другом конце предложит заманчивую сделку. Пучит должен выполнить 13 заданий, после чего он получит кругленькую сумму. Первые задания выглядят относительно безобидно, но вскоре становятся всё более и более изощрёнными и опасными…



Страна: Таиланд
Продолжительность: 01:48:46
Перевод: Профессиональный (многоголосый, закадровый) R5

Качество: BDRip-AVC
Формат: MKV
Видео: AVC; 1024x576 (16:9); 2415 Kbps; 25 fps
Аудио: AC3; 48 kHz, 448 Kbps; 6 ch Front: L C R, Side: L R, LFE

General
Unique ID : 245026911162503953341822360309045340370 (0xB856776F173050859DE7CA9FB2DB28D2)
Complete name : D:КИНО13.Zadaniy.(2006).BDRip-AVC.[-=DoMiNo=-].mkv
Format : Matroska
Format version : Version 2
File size : 2.18 GiB
Duration : 1h 48mn
Overall bit rate : 2 865 Kbps
Encoded date : UTC 2014-02-19 21:48:09
Writing application : mkvmerge v5.8.0 ('No Sleep / Pillow') built on Sep 2 2012 15:37:04
Writing library : libebml v1.2.3 + libmatroska v1.3.0

Video
ID : 1
Format : AVC
Format/Info : Advanced Video Codec
Format profile : High@L4.1
Format settings, CABAC : Yes
Format settings, ReFrames : 12 frames
Codec ID : V_MPEG4/ISO/AVC
Duration : 1h 48mn
Bit rate : 2 415 Kbps
Width : 1 024 pixels
Height : 576 pixels
Display aspect ratio : 16:9
Frame rate mode : Constant
Frame rate : 25.000 fps
Color space : YUV
Chroma subsampling : 4:2:0
Bit depth : 8 bits
Scan type : Progressive
Bits/(Pixel*Frame) : 0.164
Stream size : 1.79 GiB (82%)
Writing library : x264 core 125 r2208 d9d2288
Encoding settings : cabac=1 / ref=12 / deblock=1:1:-3 / analyse=0x3:0x133 / me=umh / subme=11 / psy=1 / psy_rd=1.00:0.02 / mixed_ref=1 / me_range=24 / chroma_me=1 / trellis=2 / 8x8dct=1 / cqm=0 / deadzone=21,11 / fast_pskip=0 / chroma_qp_offset=-6 / threads=6 / lookahead_threads=6 / sliced_threads=0 / slices=4 / nr=0 / decimate=1 / interlaced=0 / bluray_compat=0 / constrained_intra=0 / bframes=4 / b_pyramid=2 / b_adapt=2 / b_bias=0 / direct=3 / weightb=1 / open_gop=1 / weightp=2 / keyint=240 / keyint_min=23 / scenecut=40 / intra_refresh=0 / rc=2pass / mbtree=0 / bitrate=2415 / ratetol=1.0 / qcomp=0.60 / qpmin=0 / qpmax=69 / qpstep=4 / cplxblur=20.0 / qblur=0.5 / ip_ratio=1.40 / pb_ratio=1.30 / aq=2:1.50
Default : Yes
Forced : No
Color primaries : Generic film

Audio
ID : 2
Format : AC-3
Format/Info : Audio Coding 3
Mode extension : CM (complete main)
Format settings, Endianness : Big
Codec ID : A_AC3
Duration : 1h 48mn
Bit rate mode : Constant
Bit rate : 448 Kbps
Channel(s) : 6 channels
Channel positions : Front: L C R, Side: L R, LFE
Sampling rate : 48.0 KHz
Bit depth : 16 bits
Compression mode : Lossy
Stream size : 349 MiB (16%)
Default : Yes
Forced : No



Скачать 13.Заданий.13.Game.Sayawng.(Чукайт.Саквееракул).[2006.ужасы.триллер.драма.BDRip-AVC].[MVO].torrent без регистрации
Золото ЗОЛОТАЯ РАЗДАЧА! СКАЧАННОЕ НЕ ЗАСЧИТЫВАЕТСЯ! Золото
Дата: Зарегистрирован   [ Тип: внутренний ] Как тут cкачать?
MAGNET ссылка
MAGNET ссылка


Скачать .torrent

12 KB

Статус: проверено DHT
Скачан: торрент - 112 раз, раздача полностью - 28 раз
Размер: 2,18 GB
Оценка:  - (Голосов: 0)
Поблагодарили: 1
Поделиться ссылкой на эту раздачу с друзьями:
В контактеFacebookОдноклассникиTwitterLivejournalМой МирLiveinternet
 

 
Показать сообщения:    


Вы не можете начинать темы
Вы не можете отвечать на сообщения
Вы не можете редактировать свои сообщения
Вы не можете удалять свои сообщения
Вы не можете голосовать в опросах
Вы не можете прикреплять файлы к сообщениям
Вы можете скачивать файлы