Loading...
Error

Скачать Двойник / The Assignment (Кристиан Дюге) [1997, боевик, триллер, криминал, DVDRip] [Dub]+[MVO]+[Оригинал]+[Sub] торрент без регистрации

 
Статистика раздачи
Размер:  2,18 GB   |    Скачан:  124 раза
Сидов:  2  [  0 KB/s  ]  
 
Автор Сообщение

Marsianka

[] 

Страна: Канада
Производство: Allegro Film Productions V, Allegro Films, Canadian Film or Video Production Tax Credit Program

Жанр: боевик, триллер, криминал
Год выпуска: 1997
Продолжительность: 01:54:25

Перевод: Профессиональный (полное дублирование), Профессиональный (многоголосый закадровый)
Оригинальная аудиодорожка: английский
Cубтитры: русский

Режиссер: Кристиан Дюге / Christian Duguay

В ролях:
Эйдан Куинн /Aidan Quinn/, Доналд Сазерленд /Donald Sutherland/, Бен Кингсли /Ben Kingsley/, Лилиана Коморовска /Liliana Komorowska/, Селин Бонье /Celine Bonnier/, Клаудиа Ферри /Claudia Ferri/, Власта Врана /Vlasta Vrana/, Вон Флорес /Von Flores/, Эл Уэксмэн /Al Waxman/...

Роли дублировали:
Андрей Гриневич, Владимир Еремин, Александр Белявский, Нина Тобилевич, Юрий Саранцев...

Описание:
Карлос Санчес, «Шакал». Многие годы этого имени было достаточно, чтобы вызвать страх у целой страны. Профессиональный террорист с холодным умом и безжалостным сердцем. Международный наемный убийца, который получал удовольствие, убивая невинных. Человек, от которого исходило зло и насилие. Ему всегда удавалось уйти. 20 лет ФБР и Моссад считали его целью номер один. И каждый раз он ускользал — как привидение в ночи. До тех пор, пока не появился Аннибал Рамирес, офицер флота, любящий муж и отец, у которого нет ничего общего с Карлосом, кроме одного: он, как две капли воды, похож на него…

Исходник: DVD5 R5
Тип релиза: DVDRip
Контейнер: AVI

Видео: 704x400 (16:9), 25,000 fps, XviD ~ 1765 kbps avg, 0.251 bit/pixel
Аудио: 48 kHz, Dolby Digital AC3 5.1, 384 kbps DUB
Аудио: 48 kHz, Dolby Digital AC3 2.0, 192 kbps MVO
Аудио: 48 kHz, Dolby Digital AC3 5.1, 384 kbps Английский
Субтитры: SoftSub (srt)
Раздача от:

Общее
Полное имя : Двойник.1997.DVDRip_[New-team]_by_AVP_Studio.avi
Формат : AVI
Формат/Информация : Audio Video Interleave
Профиль формата : OpenDML
Размер файла : 2,20 Гбайт
Продолжительность : 1 ч. 54 м.
Общий поток : 2749 Кбит/сек
Программа кодирования : VirtualDubModRus 1.5.10.2 (build 2542/release)
Библиотека кодирования : VirtualDubMod build 2542/release

Видео
Идентификатор : 0
Формат : MPEG-4 Visual
Профиль формата : Advanced Simple@L5
Параметр BVOP формата : 1
Параметр QPel формата : Нет
Параметр GMC формата : Без точки перехода
Параметр матрицы формата : Выборочная
Идентификатор кодека : XVID
Идентификатор кодека/Подсказка : XviD
Продолжительность : 1 ч. 54 м.
Битрейт : 1765 Кбит/сек
Ширина : 704 пикселя
Высота : 400 пикселей
Соотношение сторон : 16:9
Частота кадров : 25,000 кадров/сек
Цветовое пространство : YUV
Субдискретизация насыщенности : 4:2:0
Битовая глубина : 8 бит
Тип развёртки : Прогрессивная
Метод сжатия : С потерями
Бит/(Пиксели*Кадры) : 0.251
Размер потока : 1,41 Гбайт (64%)
Библиотека кодирования : XviD 73

Аудио #1
Идентификатор : 1
Формат : AC-3
Формат/Информация : Audio Coding 3
Расширение режима : CM (complete main)
Параметр Endianness формата : Big
Идентификатор кодека : 2000
Продолжительность : 1 ч. 54 м.
Вид битрейта : Постоянный
Битрейт : 384 Кбит/сек
Каналы : 6 каналов
Расположение каналов : Front: L C R, Side: L R, LFE
Частота : 48,0 КГц
Битовая глубина : 16 бит
Метод сжатия : С потерями
Размер потока : 314 Мбайт (14%)
Выравнивание : Разделение по промежуткам
Продолжительность промежутка : 40 мс. (1,00 видеокадр)
Время предзагрузки промежутка : 500 мс.

Аудио #2
Идентификатор : 2
Формат : AC-3
Формат/Информация : Audio Coding 3
Профиль формата : Dolby Digital
Расширение режима : CM (complete main)
Параметр Endianness формата : Big
Идентификатор кодека : 2000
Продолжительность : 1 ч. 54 м.
Вид битрейта : Постоянный
Битрейт : 192 Кбит/сек
Каналы : 2 канала
Расположение каналов : Front: L R
Частота : 48,0 КГц
Битовая глубина : 16 бит
Метод сжатия : С потерями
Размер потока : 157 Мбайт (7%)
Выравнивание : Разделение по промежуткам
Продолжительность промежутка : 40 мс. (1,00 видеокадр)
Время предзагрузки промежутка : 500 мс.

Аудио #3
Идентификатор : 3
Формат : AC-3
Формат/Информация : Audio Coding 3
Расширение режима : CM (complete main)
Параметр Endianness формата : Big
Идентификатор кодека : 2000
Продолжительность : 1 ч. 54 м.
Вид битрейта : Постоянный
Битрейт : 384 Кбит/сек
Каналы : 6 каналов
Расположение каналов : Front: L C R, Side: L R, LFE
Частота : 48,0 КГц
Битовая глубина : 16 бит
Метод сжатия : С потерями
Размер потока : 314 Мбайт (14%)
Выравнивание : Разделение по промежуткам
Продолжительность промежутка : 40 мс. (1,00 видеокадр)
Время предзагрузки промежутка : 500 мс



Скачать Двойник.The.Assignment.(Кристиан.Дюге).[1997.боевик.триллер.криминал.DVDRip].[Dub]+[MVO]+[Оригинал]+[Sub].torrent без регистрации
Золото ЗОЛОТАЯ РАЗДАЧА! СКАЧАННОЕ НЕ ЗАСЧИТЫВАЕТСЯ! Золото
Дата: Зарегистрирован   [ Тип: внешний ] Как тут cкачать?
MAGNET ссылка
MAGNET ссылка


Скачать .torrent

12 KB

Статус: проверено DHT
Скачан: торрент - 124 раз, раздача полностью - 9 раз
Размер: 2,18 GB
Оценка:  - (Голосов: 0)
Поблагодарили: 1
Поделиться ссылкой на эту раздачу с друзьями:
В контактеFacebookОдноклассникиTwitterLivejournalМой МирLiveinternet
 

 
Показать сообщения:    


Вы не можете начинать темы
Вы не можете отвечать на сообщения
Вы не можете редактировать свои сообщения
Вы не можете удалять свои сообщения
Вы не можете голосовать в опросах
Вы не можете прикреплять файлы к сообщениям
Вы можете скачивать файлы