Loading...
Error

Скачать Рики Бобби: Король дороги / Talladega Nights: The Ballad of Ricky Bobby (Адам МакКэй / Adam McKay) [2006 г., комедия, спорт, боевик, HDRip] [AVO] (Е.Гранкин) торрент без регистрации

 
Статистика раздачи
Размер:  745 MB   |    Скачан:  107 раз
Сидов:  1  [  0 KB/s  ]  
 
Автор Сообщение

leon030982

[] 

Рики Бобби: Король дороги / Talladega Nights: The Ballad of Ricky Bobby



Год выпуска: 2006
Страна: США
Жанр: комедия, спорт, боевик
Продолжительность: 01:47:59
Перевод: Авторский (одноголосый, закадровый) Евгений Гранкин
Cубтитры: нет

Режиссер: Адам МакКэй / Adam McKay

В ролях: Уилл Феррелл, Джон Си Райли, Гэри Коул, Лорри Бесс Крумли, Люк Бигхем, Остин Крим, Майкл Кларк Дункан, Джейсон Дэвис, Джейн Линч, Адам МакКэй

Описание: Рикки Бобби — автогонщик мирового класса, участвующий в соревнованиях серии NASCAR. Рикки придерживается принципа «победа любой ценой», что делает его национальным героем.
Он и его верный друг Кэл Нотон-мл. всегда занимают соответственно первые и вторые места; восхищаясь бесстрашными гонщиками, их преданные поклонники дали им прозвище Гром и Молния. Когда же бессменным лидерам бросил вызов французский пилот «Формулы 1» Жан Жирар, Рикки пришлось доказывать свое превосходство, ведя борьбу не только с опаснейшим соперником, но и с самим собой…



Качество: HDRip
Формат: AVI
Видео кодек: XviD
Аудио кодек: Mp3
Видео: 688x288 (2.39:1), 23.976 fps, XviD build 50 ~827 kbps avg, 0.17 bit/pixel
Аудио: 48 kHz, MPEG Layer 3, 2 ch, ~128.00 kbps avgАудио
Полное имя : Riki.Bobbi.Korol'.dorogi.2006.HDRip.avi
Формат : AVI
Формат/Информация : Audio Video Interleave
Размер файла : 745 Мбайт
Продолжительность : 1 ч. 47 м.
Общий поток : 965 Кбит/сек
Программа кодирования : VirtualDubMod 1.5.10.2 (build 2540/release)
Библиотека кодирования : VirtualDubMod build 2540/release
Видео
Идентификатор : 0
Формат : MPEG-4 Visual
Профиль формата : Advanced Simple@L5
Параметр BVOP формата : 1
Параметр QPel формата : Нет
Параметр GMC формата : Без точки перехода
Параметр матрицы формата : Выборочная
Идентификатор кодека : XVID
Идентификатор кодека/Подсказка : XviD
Продолжительность : 1 ч. 47 м.
Битрейт : 828 Кбит/сек
Ширина : 688 пикселей
Высота : 288 пикселей
Соотношение сторон : 2,40:1
Частота кадров : 23,976 кадра/сек
Цветовое пространство : YUV
Субдискретизация насыщенности : 4:2:0
Битовая глубина : 8 бит
Тип развёртки : Прогрессивная
Метод сжатия : С потерями
Бит/(Пиксели*Кадры) : 0.174
Размер потока : 639 Мбайт (86%)
Библиотека кодирования : XviD 1.2.1 (UTC 2008-12-04)
Аудио
Идентификатор : 1
Формат : MPEG Audio
Версия формата : Version 1
Профиль формата : Layer 3
Режим : Joint stereo
Расширение режима : MS Stereo
Идентификатор кодека : 55
Идентификатор кодека/Подсказка : MP3
Продолжительность : 1 ч. 47 м.
Вид битрейта : Постоянный
Битрейт : 128 Кбит/сек
Каналы : 2 канала
Частота : 48,0 КГц
Метод сжатия : С потерями
Размер потока : 98,9 Мбайт (13%)
Выравнивание : Соединение по промежуткам
Продолжительность промежутка : 42 мс. (1,00 видеокадр)
Время предзагрузки промежутка : 504 мс.
Библиотека кодирования : LAME3.99r
Настройки программы : -m j -V 4 -q 2 -lowpass 17 -b 128



Скачать Рики.Бобби.Король.дороги.Talladega.Nights.The.Ballad.of.Ricky.Bobby.(Адам.МакКэй.Adam.McKay).[2006.г.комедия.спорт.боевик.HDRip].[AVO].(Е.Гранкин).torrent без регистрации
Золото ЗОЛОТАЯ РАЗДАЧА! СКАЧАННОЕ НЕ ЗАСЧИТЫВАЕТСЯ! Золото
Дата: Зарегистрирован   [ Тип: внутренний ] Как тут cкачать?
MAGNET ссылка
MAGNET ссылка


Скачать .torrent

15 KB

Статус: проверено DHT
Скачан: торрент - 107 раз, раздача полностью - 4 раз
Размер: 745 MB
Оценка:  5 (Голосов: 1)
Поблагодарили: 0
Поделиться ссылкой на эту раздачу с друзьями:
В контактеFacebookОдноклассникиTwitterLivejournalМой МирLiveinternet
 

 
Показать сообщения:    


Вы не можете начинать темы
Вы не можете отвечать на сообщения
Вы не можете редактировать свои сообщения
Вы не можете удалять свои сообщения
Вы не можете голосовать в опросах
Вы не можете прикреплять файлы к сообщениям
Вы можете скачивать файлы