Loading...
Error

Скачать Харакири / Seppuku (Масаки Кобаяси) [1962, драма, BDRip-AVC] [MVO]+[Оригинал]+[Sub]x2 торрент без регистрации

 
Статистика раздачи
Размер:  3,55 GB   |    Скачан:  114 раз
Сидов:  1  [  0 KB/s  ]  
 
Автор Сообщение

Marsianka

[] 

Информация о фильме
Название: Харакири
Оригинальное название: Seppuku
Год выхода: 1962
Жанр: драма
Режиссер: Масаки Кобаяси
В ролях: Тацуя Накадаи, Акира Ишихама, Сима Ивасита, Тэцуро Тамба, Масао Мисима, Кэй Сато, Есио Инаба, Хисаси Игава, Тору Текучи, Йошио Аоки, Тацуо Матсумура, Акидзи Кобаяси

О фильме: Глубокое исследование традиционной японской эстетики и философских вопросов демонстрирует черно-белый фильм "Харакири" (спецприз жюри в Каннах, 1963 г.). Бедность, угрожавшая жизни самурая, считалась позором, ради избежания которого он должен был совершить харакири. В фильме показываются бесчеловечность этой традиции и лицемерие тех, кто требовал ее соблюдения. Повествование ведется от лица двух главных персонажей, сдержанно, спокойно, зато в сценах возвратов в прошлое нарастает напряжение и саспенс. Молодого ронина вынудили совершить харакири бамбуковым мечом, потому что настоящий он был вынужден продать, чтобы помочь семье. За это издевательство мстит его тесть, но в итоге погибает сам. В фильме множество символов, как зрительных, так и вербальных, резкий контраст белого песка и черного кимоно; книга, в которой делались лицемерные записи о произошедших за день событиях. Режиссер вновь не оставляет никакой надежды на изменение бездушной системы. Мужественная попытка самурая отомстить остается бесплодной жертвой.



Страна: Япония
Студия: Shochiku Films Ltd
Продолжительность: 02:13:01
Перевод: Профессиональный многоголосый

Файл
Кодек: MPEG-4 AVC
Качество: BDRip-AVC
Видео: 3500 Кбит/с, 1024x438, 23.976 кадр/с
Аудио #1: Русский (AC3, 2 ch, 192 Кбит/с) / Профессиональный многоголосый (Триумф Видео)
Аудио #2: Японский (AC3, 1 ch, 128 Кбит/с)
Субтитры: Русские, английские
Семпл
Общее
Уникальный идентификатор : 172477957472567345449880015216199561756 (0x81C20BDA99855055B9C9499D6987721C)
Полное имя : D:Мои РипыHarakiri.1962.x264.BDRip.AVC.MediaClub.mkv
Формат : Matroska
Версия формата : Version 4 / Version 2
Размер файла : 3,55 Гбайт
Продолжительность : 2 ч. 13 м.
Общий поток : 3822 Кбит/сек
Название фильма : = MediaClub = rip by krakatuq
Дата кодирования : UTC 2014-06-19 12:35:49
Программа кодирования : mkvmerge v6.6.0 ('The Edge Of The In Between') built on Dec 1 2013 17:55:00
Библиотека кодирования : libebml v1.3.0 + libmatroska v1.4.1

Видео
Идентификатор : 1
Формат : AVC
Формат/Информация : Advanced Video Codec
Профиль формата : High@L4.1
Параметр CABAC формата : Да
Параметр ReFrames формата : 9 кадров
Идентификатор кодека : V_MPEG4/ISO/AVC
Продолжительность : 2 ч. 13 м.
Битрейт : 3500 Кбит/сек
Ширина : 1024 пикселя
Высота : 438 пикселей
Соотношение сторон : 2,35:1
Режим частоты кадров : Постоянный
Частота кадров : 23,976 кадра/сек
Цветовое пространство : YUV
Субдискретизация насыщенности : 4:2:0
Битовая глубина : 8 бит
Тип развёртки : Прогрессивная
Бит/(Пиксели*Кадры) : 0.325
Размер потока : 3,18 Гбайт (90%)
Заголовок : Harakiri.1962.x264.BDRip.AVC.MediaClub
Библиотека кодирования : x264 core 142 r2409+42 04be48a tMod [8-bit@4:2:0 X86]
Настройки программы : cabac=1 / ref=9 / deblock=1:-3:-3 / analyse=0x3:0x133 / me=umh / subme=11 / psy=1 / fade_compensate=0.00 / psy_rd=1.00:0.25 / mixed_ref=1 / me_range=32 / chroma_me=1 / trellis=2 / 8x8dct=1 / cqm=0 / deadzone=21,11 / fast_pskip=0 / chroma_qp_offset=-4 / threads=3 / lookahead_threads=1 / sliced_threads=0 / nr=0 / decimate=0 / interlaced=0 / bluray_compat=0 / constrained_intra=0 / fgo=0 / bframes=8 / b_pyramid=2 / b_adapt=2 / b_bias=0 / direct=3 / weightb=1 / open_gop=0 / weightp=2 / keyint=240 / keyint_min=23 / scenecut=40 / intra_refresh=0 / rc=2pass / mbtree=0 / bitrate=3500 / ratetol=1.0 / qcomp=0.60 / qpmin=0:0:0 / qpmax=69:69:69 / qpstep=4 / cplxblur=20.0 / qblur=0.5 / ip_ratio=1.40 / pb_ratio=1.30 / aq=1:1.00 / aq-sensitivity=10.00 / aq-factor=1.00:1.00:1.00 / aq2=0 / aq3=0
Язык : Japanese
Default : Да
Forced : Нет

Аудио #1
Идентификатор : 2
Формат : AC-3
Формат/Информация : Audio Coding 3
Расширение режима : CM (complete main)
Параметр Endianness формата : Big
Идентификатор кодека : A_AC3
Продолжительность : 2 ч. 13 м.
Вид битрейта : Постоянный
Битрейт : 192 Кбит/сек
Каналы : 2 канала
Расположение каналов : Front: L R
Частота : 48,0 КГц
Битовая глубина : 16 бит
Метод сжатия : С потерями
Размер потока : 183 Мбайт (5%)
Заголовок : TRACK_01_MVO_RUS
Язык : Russian
Default : Да
Forced : Да

Аудио #2
Идентификатор : 3
Формат : AC-3
Формат/Информация : Audio Coding 3
Расширение режима : CM (complete main)
Параметр Endianness формата : Big
Идентификатор кодека : A_AC3
Продолжительность : 2 ч. 13 м.
Вид битрейта : Постоянный
Битрейт : 128 Кбит/сек
Каналы : 1 канал
Расположение каналов : Front: C
Частота : 48,0 КГц
Битовая глубина : 16 бит
Метод сжатия : С потерями
Размер потока : 122 Мбайт (3%)
Заголовок : TRACK_02_ORIGINAL_JPN
Язык : English
Default : Нет
Forced : Нет

Текст #1
Идентификатор : 4
Формат : UTF-8
Идентификатор кодека : S_TEXT/UTF8
Идентификатор кодека/Информация : UTF-8 Plain Text
Заголовок : TEXT_01_SUB_RUS
Язык : Russian
Default : Нет
Forced : Нет

Текст #2
Идентификатор : 5
Формат : UTF-8
Идентификатор кодека : S_TEXT/UTF8
Идентификатор кодека/Информация : UTF-8 Plain Text
Заголовок : TEXT_02_SUB_ENG
Язык : English
Default : Нет
Forced : Нет

Меню
00:00:00.000 : en:Arrival
00:03:59.266 : en:Request
00:08:55.933 : en:Doubts
00:12:47.166 : en:Robes
00:17:42.933 : en:Boon
00:21:02.066 : en:Bamboo
00:25:40.800 : en:Crosswise
00:31:37.966 : en:Intentions
00:33:52.966 : en:Second
00:39:35.366 : en:Acquaintance
00:43:47.699 : en:Abolished
00:46:57.433 : en:Indisposed
00:51:53.766 : en:Forced
01:00:25.666 : en:Changes
01:07:53.333 : en:Kingo
01:13:59.399 : en:Helpless
01:21:40.565 : en:Waiting
01:25:00.831 : en:Return
01:31:15.531 : en:Worthless
01:34:18.098 : en:Alone
01:44:14.398 : en:Knots
01:49:17.098 : en:Plains
01:58:19.531 : en:Steel
02:06:18.365 : en:Fiction
02:09:04.998 : en:Prosperity
Релиз от:

Автор рипа:



Скачать Харакири.Seppuku.(Масаки.Кобаяси).[1962.драма.BDRip-AVC].[MVO]+[Оригинал]+[Sub]x2.torrent без регистрации
Золото ЗОЛОТАЯ РАЗДАЧА! СКАЧАННОЕ НЕ ЗАСЧИТЫВАЕТСЯ! Золото
Дата: Зарегистрирован   [ Тип: внутренний ] Как тут cкачать?
MAGNET ссылка
MAGNET ссылка


Скачать .torrent

18 KB

Статус: проверено DHT
Скачан: торрент - 114 раз, раздача полностью - 1 раз
Размер: 3,55 GB
Оценка:  - (Голосов: 0)
Поблагодарили: 1
Поделиться ссылкой на эту раздачу с друзьями:
В контактеFacebookОдноклассникиTwitterLivejournalМой МирLiveinternet
 

 
Показать сообщения:    


Вы не можете начинать темы
Вы не можете отвечать на сообщения
Вы не можете редактировать свои сообщения
Вы не можете удалять свои сообщения
Вы не можете голосовать в опросах
Вы не можете прикреплять файлы к сообщениям
Вы можете скачивать файлы