Loading...
Error

Скачать Камера / The Chamber (Джеймс Фоули) [1996, триллер, драма, WEB-DLRip] [DVO] торрент без регистрации

 
Статистика раздачи
Размер:  1,46 GB   |    Скачан:  125 раз
Сидов:  1  [  0 KB/s  ]  
 
Автор Сообщение

Marsianka

[] 

Информация о фильме
Название: Камера
Оригинальное название: The Chamber
Год выхода: 1996
Жанр: триллер, драма
Режиссер: Джеймс Фоули / James Foley
В ролях: Крис О’Доннелл, Джин Хэкмен, Фэй Данауэй, Роберт Проски, Рэймонд Дж. Бэрри, Бо Джексон, Лила Рошон, Дэвид Маршалл Грант, Николас Прайор, Харви Преснелл

О фильме:

В апреле 1967 года в одном из южных штатов расисты взорвали контору еврея. Погибли двое детей. Затем действие переносится в Чикаго 1996 года. Молодой адвокат должен защищать человека, виновного в этом преступлении. Его ждет смертный приговор…

По роману Джона Гришема




Страна: США
Студия: Universal Pictures
Продолжительность: 01:52:31
Перевод: Профессиональный (двухголосый закадровый)

Файл
Кодек: XviD
Качество: WEB-DLRip
Видео: 720x304, 23,976 fps, 1659 kbps
Звук: 48.0 KHz, AC3 Dolby Digital, 2/0 (L,R) ch, 192 kbps
Общее
Полное имя : The.Chamber.1996.WEB-DLRip.avi
Формат : AVI
Формат/Информация : Audio Video Interleave
Размер файла : 1,46 Гбайт
Продолжительность : 1 ч. 52 м.
Общий поток : 1860 Кбит/сек
Программа кодирования : VirtualDubMod 1.5.10.3 | www.virtualdub-fr.org || (build 2550/release)
Библиотека кодирования : VirtualDubMod build 2550/release

Видео
Идентификатор : 0
Формат : MPEG-4 Visual
Профиль формата : Advanced Simple@L5
Параметр BVOP формата : 1
Параметр QPel формата : Нет
Параметр GMC формата : Без точки перехода
Параметр матрицы формата : Выборочная
Идентификатор кодека : XVID
Идентификатор кодека/Подсказка : XviD
Продолжительность : 1 ч. 52 м.
Битрейт : 1659 Кбит/сек
Ширина : 720 пикс.
Высота : 304 пикс.
Соотношение сторон : 2,35:1
Частота кадров : 23,976 кадр/сек
Цветовое пространство : YUV
Подвыборка цветности : 4:2:0
Битовая глубина : 8 бит
Тип развёртки : Прогрессивная
Метод сжатия : С потерями
Бит/(Пиксели*Кадры) : 0.316
Размер потока : 1,30 Гбайт (89%)
Библиотека кодирования : XviD 73

Аудио
Идентификатор : 1
Формат : AC-3
Формат/Информация : Audio Coding 3
Расширение режима : CM (complete main)
Идентификатор кодека : 2000
Продолжительность : 1 ч. 52 м.
Вид битрейта : Постоянный
Битрейт : 192 Кбит/сек
Канал(ы) : 2 канала(ов)
Расположение каналов : Front: L R
Частота : 48,0 КГц
Битовая глубина : 16 бит
Метод сжатия : С потерями
Размер потока : 154 Мбайт (10%)
Выравнивание : Разделение по промежуткам
Продолжительность промежутка : 42 мс. (1,00 видеокадр)
Время предзагрузки промежутка : 500 ms
Релиз от: Leon-masl



Скачать Камера.The.Chamber.(Джеймс.Фоули).[1996.триллер.драма.WEB-DLRip].[DVO].torrent без регистрации
Золото ЗОЛОТАЯ РАЗДАЧА! СКАЧАННОЕ НЕ ЗАСЧИТЫВАЕТСЯ! Золото
Дата: Зарегистрирован   [ Тип: внутренний ] Как тут cкачать?
MAGNET ссылка
MAGNET ссылка


Скачать .torrent

15 KB

Статус: проверено DHT
Скачан: торрент - 125 раз, раздача полностью - 5 раз
Размер: 1,46 GB
Оценка:  - (Голосов: 0)
Поблагодарили: 0
Поделиться ссылкой на эту раздачу с друзьями:
В контактеFacebookОдноклассникиTwitterLivejournalМой МирLiveinternet
 

 
Показать сообщения:    


Вы не можете начинать темы
Вы не можете отвечать на сообщения
Вы не можете редактировать свои сообщения
Вы не можете удалять свои сообщения
Вы не можете голосовать в опросах
Вы не можете прикреплять файлы к сообщениям
Вы можете скачивать файлы