Loading...
Error

Скачать Тайна Карпатского замка / Tajemství hradu v Karpate (Ольдржих Липский) [1981, фантастика, фэнтези, комедия, DVDRip-AVC] [Dub]+[MVO] торрент без регистрации

 
Статистика раздачи
Размер:  1,45 GB   |    Скачан:  118 раз
Сидов:  1  [  0 KB/s  ]  
 
Автор Сообщение

Marsianka

[] 

Страна: Чехословакия
Жанр: фантастика, фэнтези, комедия
Год выпуска: 1981
Продолжительность: 01:34:20
Перевод: Профессиональный (полное дублирование)( вырезанные моменты переведены многоголоской )
Режиссер: Ольдржих Липский / Oldrich Lipský
В ролях: Михал Дочоломанский (Count Teleke of Tölökö), Эвелина Штеймарова (Salsa Verde), Властимил Бродский (Komornik hrabéte ignác), Милош Копецки (Baron Gorc z Gorcu), Рудольф Грушинский (Vynálezce orfanik), Аугустин Кубан (Tomá Hluchonémec-Zutro), Ян Гартль (Lesni adjunkt vilja dézi), Ярослава Кречмерова (Snoubenka lesniho adjunkta), Ольдржих Велен (Krcmár), Мила Мисликова (Krcmárka), Samuel Adamcík (Kmet), Ян Скопечек (Sedlák v kozichu)
Дублёры: Игорь Стариков, Александр Райданов, Сергей Свечников, Екатерина Крупенникова, Геннадий Болотов, Валентина Гришокина, Алла Усенко, Владимир Шныпарь
Описание: Молодой граф Телеке приезжает в горы со своим слугой, чтобы развеяться после перенесенного горя- утраты невесты, известной певицы Сальзы Верде. Ему приходится пережить целый ряд неприятностей, связанных с тайной карпатского замка, из которого раздаются чарующие звуки арий в исполнении Сальзы. Оказывается, профессор Орфанчик, которого держит в своих руках жестокий барон Горц, погубивший Сальзу, изобрел звуковоспроизводящую аппаратуру.

Качество: DVDRip
Контейнер: MKV

Видео: AVC, 696x522 (4:3), 2005 kbps, 25 fps, 0,221 bpp
Аудио: русский / AC3 / 2.0 / 48 kHz / 192 kbps
Навигация по главам: есть


Format : Matroska
Format version : Version 2
File size : 1.45 GiB
Duration : 1h 34mn
Overall bit rate : 2 199 Kbps
Movie name : = Тайна Карпатского замка / Tajemstvi hradu v Karpate DVDRip by SC Kosmos =
Encoded date : UTC 2014-06-19 09:51:12
Writing application : mkvmerge v3.3.0 ('Language') gebaut am Mar 24 2010 14:59:24
Writing library : libebml v0.8.0 + libmatroska v0.9.0

Video
ID : 1
Format : AVC
Format/Info : Advanced Video Codec
Format profile : High@L4.1
Format settings, CABAC : Yes
Format settings, ReFrames : 12 frames
Codec ID : V_MPEG4/ISO/AVC
Duration : 1h 34mn
Bit rate : 2 005 Kbps
Width : 696 pixels
Height : 522 pixels
Display aspect ratio : 4:3
Frame rate : 25.000 fps
Color space : YUV
Chroma subsampling : 4:2:0
Bit depth : 8 bits
Scan type : Progressive
Bits/(Pixel*Frame) : 0.221
Stream size : 1.29 GiB (89%)
Title : Тайна Карпатского замка / Tajemstvi hradu v Karpate DVDRip by SC Kosmos
Writing library : x264 core 142 r2431 ac76440
Encoding settings : cabac=1 / ref=12 / deblock=1:-2:-2 / analyse=0x3:0x113 / me=umh / subme=11 / psy=1 / psy_rd=1.00:0.10 / mixed_ref=1 / me_range=32 / chroma_me=1 / trellis=2 / 8x8dct=1 / cqm=0 / deadzone=21,11 / fast_pskip=0 / chroma_qp_offset=-3 / threads=12 / lookahead_threads=1 / sliced_threads=0 / nr=0 / decimate=1 / interlaced=0 / bluray_compat=0 / constrained_intra=0 / bframes=10 / b_pyramid=2 / b_adapt=1 / b_bias=0 / direct=3 / weightb=1 / open_gop=0 / weightp=2 / keyint=250 / keyint_min=25 / scenecut=40 / intra_refresh=0 / rc=2pass / mbtree=0 / bitrate=2005 / ratetol=1.0 / qcomp=0.60 / qpmin=0 / qpmax=69 / qpstep=4 / cplxblur=20.0 / qblur=0.5 / ip_ratio=1.40 / pb_ratio=1.30 / aq=1:1.00
Language : Chechen
Default : No
Forced : No

Audio
ID : 2
Format : AC-3
Format/Info : Audio Coding 3
Mode extension : CM (complete main)
Codec ID : A_AC3
Duration : 1h 34mn
Bit rate mode : Constant
Bit rate : 192 Kbps
Channel(s) : 2 channels
Channel positions : Front: L R
Sampling rate : 48.0 KHz
Bit depth : 16 bits
Compression mode : Lossy
Stream size : 130 MiB (9%)
Title : Дубляж
Language : Russian
Default : Yes
Forced : No

Menu
00:00:00.000 : en:Chapter 01
00:06:22.200 : en:Chapter 02
00:14:38.800 : en:Chapter 03
00:21:01.520 : en:Chapter 04
00:30:12.720 : en:Chapter 05
00:37:46.680 : en:Chapter 06
00:41:20.400 : en:Chapter 07
00:44:57.240 : en:Chapter 08
00:50:39.400 : en:Chapter 09
00:54:33.920 : en:Chapter 10
01:01:40.840 : en:Chapter 11
01:04:32.960 : en:Chapter 12
01:09:15.320 : en:Chapter 13
01:13:12.960 : en:Chapter 14
01:18:00.520 : en:Chapter 15
01:27:47.600 : en:Chapter 16




Скачать Тайна.Карпатского.замка.Tajemství.hradu.v.Karpate.(Ольдржих.Липский).[1981.фантастика.фэнтези.комедия.DVDRip-AVC].[Dub]+[MVO].torrent без регистрации
Золото ЗОЛОТАЯ РАЗДАЧА! СКАЧАННОЕ НЕ ЗАСЧИТЫВАЕТСЯ! Золото
Дата: Зарегистрирован   [ Тип: внутренний ] Как тут cкачать?
MAGNET ссылка
MAGNET ссылка


Скачать .torrent

15 KB

Статус: проверено DHT
Скачан: торрент - 118 раз, раздача полностью - 5 раз
Размер: 1,45 GB
Оценка:  - (Голосов: 0)
Поблагодарили: 0
Поделиться ссылкой на эту раздачу с друзьями:
В контактеFacebookОдноклассникиTwitterLivejournalМой МирLiveinternet
 

 
Показать сообщения:    


Вы не можете начинать темы
Вы не можете отвечать на сообщения
Вы не можете редактировать свои сообщения
Вы не можете удалять свои сообщения
Вы не можете голосовать в опросах
Вы не можете прикреплять файлы к сообщениям
Вы можете скачивать файлы